<?xml version="1.0" standalone="no"?>
<!DOCTYPE svg PUBLIC "-//W3C//DTD SVG 1.1//EN" "http://www.w3.org/Graphics/SVG/1.1/DTD/svg11.dtd" >
<svg xmlns="http://www.w3.org/2000/svg" xmlns:xlink="http://www.w3.org/1999/xlink" version="1.1">
<metadata></metadata>
<defs>
<font id="kaushan_scriptregular" horiz-adv-x="1314" >
<font-face units-per-em="2048" ascent="1638" descent="-410" />
<missing-glyph horiz-adv-x="487" />
<glyph unicode="&#xfb01;" horiz-adv-x="1191" d="M-385 -653q0 14 8 30.5t19 22.5q29 -35 75.5 -54.5t98.5 -19.5q53 0 97 23.5t86 79t84 145.5t91 223q72 197 148.5 447t156.5 528q-78 -4 -129 -10t-67 -8q-8 8 -13.5 22.5t-5.5 26.5q33 10 93.5 23.5t146.5 27.5q49 147 108.5 267t128 204t147.5 129t171 45 q33 0 72.5 -13t77.5 -28.5t69 -29t47 -13.5q25 14 69 25.5t74 11.5q25 0 64 -27q-18 -29 -36.5 -78t-29.5 -96q-51 -152 -108 -196q-10 0 -17.5 13t-7.5 46q0 23 -10 41.5t-23.5 36.5t-23.5 36.5t-10 39.5q0 12 2 29.5t8 58.5q-25 2 -48.5 3t-45.5 1q-80 0 -142.5 -39 t-111.5 -105.5t-88 -151.5t-70 -177q72 4 148.5 8t164.5 4q10 0 44 -1t77 -2t87 -5t75 -10q20 -23 31 -43q-47 -61 -90 -139t-80 -161t-67 -164t-51.5 -149.5t-34.5 -120t-15 -73.5q-4 -37 -3 -52.5t-9 -15.5q-8 0 -33 10.5t-50.5 32t-46 54t-20.5 77.5q0 57 16.5 144.5 t43 179.5t61.5 177t72 138q-66 4 -131.5 7t-131.5 3h-45t-45 -2q-102 -322 -183 -561t-149.5 -410t-131 -281t-125 -172t-132 -87t-153.5 -25q-145 0 -248 99z" />
<glyph unicode="&#xfb02;" horiz-adv-x="1202" d="M-385 -653q0 14 8 30.5t19 22.5q29 -35 75.5 -54.5t98.5 -19.5q53 0 97 23.5t86 79t84 145.5t91 223q72 197 148.5 447t156.5 528q-78 -4 -129 -10t-67 -8q-8 8 -13.5 22.5t-5.5 26.5q33 10 92.5 24.5t147.5 28.5q49 147 108.5 267t128 203t147.5 128t171 45 q27 0 65.5 -10t79.5 -25.5t80 -32t66 -26.5q96 188 186 295q25 -4 60.5 -20.5t70.5 -36t62.5 -40t35.5 -32.5q-160 -188 -280.5 -405.5t-220.5 -497.5q-86 -242 -131.5 -435.5t-45.5 -322.5v-43t3 -17q-29 4 -49.5 14.5t-26.5 24.5q-4 10 -22.5 30t-33.5 30q-18 12 -30.5 64 t-12.5 118q0 90 43 253t121 380q63 174 122 316.5t116 258.5q-37 10 -77 15.5t-58 5.5q-80 0 -142.5 -39t-111.5 -105.5t-88 -151.5t-70 -177q43 4 89 6t95 4q-25 -23 -43 -58.5t-22 -52.5h-62h-45t-45 -2q-102 -322 -183 -561t-149.5 -410t-131 -281t-125 -172t-132 -87 t-153.5 -25q-145 0 -248 99z" />
<glyph unicode="&#xfb03;" horiz-adv-x="1757" d="M-391 -653q0 14 8 30.5t18 22.5q29 -35 76 -54.5t99 -19.5q53 0 97 23.5t86 79t84 145.5t91 223q74 199 143.5 427.5t151.5 508.5q-53 -8 -100.5 -16t-88.5 -19q-8 8 -13 33t-5 37q47 10 105.5 21.5t123.5 21.5q49 160 105.5 290t123 222t144.5 142.5t170 50.5 q78 0 149.5 -40t133.5 -87q59 76 126.5 115.5t145.5 39.5q37 0 83 -20.5t89 -44t80 -44t55 -20.5q25 14 69 25.5t75 11.5q25 0 63 -27q-18 -29 -36.5 -78t-28.5 -96q-51 -152 -109 -196q-10 0 -17.5 13t-7.5 46q0 23 -10 41.5t-23.5 36.5t-23.5 36.5t-10 39.5q0 12 2 29.5 t8 58.5q-74 49 -135 49q-66 0 -119 -43t-98 -113.5t-83 -163t-69 -188.5q59 2 117.5 3t120.5 1q82 0 170 -4t186 -16q20 -23 31 -43q-47 -61 -90 -139t-80 -161t-66.5 -164t-51 -149.5t-35 -120t-15.5 -73.5q-4 -37 -3 -52.5t-9 -15.5q-8 0 -33 10.5t-50.5 32t-46 54 t-20.5 77.5q0 57 16.5 144.5t43 179.5t61.5 177t72 138q-92 6 -179 7t-173 1q-98 -324 -177 -563t-148 -409t-132.5 -280t-128 -173.5t-135 -87t-154.5 -23.5q-78 0 -148.5 32t-123.5 91q-68 -70 -139.5 -96.5t-159.5 -26.5q-145 0 -248 99zM188 -590q29 -35 72 -59.5 t121 -24.5q53 0 97 23.5t86 79t84 145.5t91 223q72 199 149 450.5t159 532.5q-86 -2 -166 -6t-156 -10q-90 -289 -163 -510t-137.5 -385t-121.5 -276.5t-115 -182.5zM754 850q76 10 156.5 18.5t166.5 14.5q41 135 88 246.5t101 195.5q-47 29 -86 40t-56 11q-55 0 -101 -33.5 t-89 -100t-87 -165t-93 -227.5z" />
<glyph unicode="&#xfb04;" horiz-adv-x="1763" d="M-391 -653q0 14 8 30.5t18 22.5q29 -35 76 -54.5t99 -19.5q53 0 97 23.5t86 79t84 145.5t91 223q74 199 143.5 427.5t151.5 508.5q-53 -8 -100.5 -16t-88.5 -19q-8 8 -13 33t-5 37q47 10 105.5 22.5t123.5 22.5q49 160 105.5 290t123 221t144.5 141.5t170 50.5 q78 0 149.5 -40t133.5 -87q59 76 126.5 115.5t145.5 39.5q33 0 74 -11t86 -29.5t88 -44t80 -56.5q96 188 186 297q25 -4 60.5 -20.5t70.5 -36t62.5 -40t36.5 -32.5q-160 -188 -281 -405.5t-221 -497.5q-86 -242 -131 -435.5t-45 -322.5v-43t2 -17q-29 4 -49.5 14.5 t-26.5 24.5q-4 10 -22.5 30t-32.5 30q-18 12 -30.5 64t-12.5 118q0 90 43 253t120 380q127 348 242 582q-57 39 -99 49t-77 10q-66 0 -119 -43t-98 -113.5t-83 -163t-69 -188.5q51 2 103.5 3t105.5 1l-67 -119q-45 2 -89 2h-87q-98 -324 -177 -563t-148 -409t-132.5 -280 t-128 -173.5t-135 -87t-154.5 -23.5q-78 0 -148.5 32t-123.5 91q-68 -70 -139.5 -96.5t-159.5 -26.5q-145 0 -248 99zM188 -590q29 -35 72 -59.5t121 -24.5q53 0 97 23.5t86 79t84 145.5t91 223q72 199 149 450.5t159 532.5q-86 -2 -166 -6t-156 -10q-90 -289 -163 -510 t-137.5 -385t-121.5 -276.5t-115 -182.5zM754 850q76 10 156.5 18.5t166.5 14.5q41 135 88 246.5t101 195.5q-47 29 -86 40t-56 11q-55 0 -101 -33.5t-89 -100t-87 -165t-93 -227.5z" />
<glyph horiz-adv-x="0" />
<glyph unicode="&#xd;" horiz-adv-x="909" />
<glyph horiz-adv-x="0" />
<glyph horiz-adv-x="0" />
<glyph unicode=" "  horiz-adv-x="487" />
<glyph unicode="&#x09;" horiz-adv-x="487" />
<glyph unicode="&#xa0;" horiz-adv-x="487" />
<glyph unicode="!" horiz-adv-x="614" d="M123 -59q0 25 6 63.5t18.5 74.5t31 61.5t40.5 25.5q57 0 115.5 -40t87.5 -89q-25 -27 -43.5 -60.5t-36.5 -63.5t-40.5 -50.5t-53.5 -20.5q-25 0 -47.5 11.5t-40 27t-27.5 32.5t-10 28zM293 385q0 55 29.5 160.5t76.5 233.5t106.5 264.5t120 255t116 205.5t96.5 116 q33 -6 70.5 -29.5t70.5 -53.5t57.5 -62.5t28.5 -57.5q-104 -86 -206.5 -214t-189.5 -283.5t-152.5 -332.5t-98.5 -362q-25 6 -48.5 15.5t-40 26t-26.5 45t-10 73.5z" />
<glyph unicode="&#x22;" horiz-adv-x="751" d="M469 1116q25 72 46.5 165t21.5 208q0 51 -5.5 104.5t-19.5 112.5q98 -6 179 -42t108 -87q-35 -186 -106.5 -323.5t-190.5 -215.5q-12 10 -22.5 33t-10.5 45zM838 1116q25 72 46 165t21 208q0 51 -5 104.5t-19 112.5q98 -6 179 -42t107 -87q-35 -186 -106.5 -323.5 t-190.5 -215.5q-12 10 -22 33t-10 45z" />
<glyph unicode="#" horiz-adv-x="1384" d="M231 457q0 16 4.5 32.5t10.5 36.5q35 -4 65.5 -8t79.5 -4h110.5t127.5 4q16 47 32.5 96.5t32.5 98.5q-57 -4 -104 -6t-78 -2q-61 0 -91 25.5t-30 70.5q0 33 15 69q33 -4 63.5 -8t79.5 -4h91t103 4q59 186 118 383t108 395q49 0 101 -26.5t83 -91.5q-59 -170 -119.5 -333 t-120.5 -321l185 11q59 184 114.5 375.5t104.5 385.5q49 0 101 -26.5t83 -91.5q-59 -164 -116.5 -322t-114.5 -311q76 4 129 7t71 3q39 0 66 -29.5t31 -115.5q-51 6 -84 8t-58 2q-43 0 -95 -2t-111 -6q-23 -53 -42.5 -105.5t-41.5 -103.5q68 4 114.5 6t63.5 2 q39 0 64.5 -29.5t29.5 -115.5q-49 6 -82 8t-57 2q-39 0 -86 -2t-101 -6q-100 -242 -191 -429.5t-169 -299.5q-45 25 -53 88q47 86 116.5 248.5t149.5 381.5q-53 -4 -106.5 -8t-106.5 -8q-96 -231 -184 -411.5t-164 -290.5q-45 25 -54 88q45 82 112 237.5t144 364.5 q-72 -6 -129 -9.5t-92 -3.5q-61 0 -92 26t-31 71zM778 526q53 2 104.5 4t100.5 7q16 51 34.5 102t35.5 104q-49 -4 -98.5 -8t-96.5 -8q-20 -53 -39.5 -103.5t-40.5 -97.5z" />
<glyph unicode="$" horiz-adv-x="1368" d="M215 330q0 41 24.5 106.5t90.5 136.5q0 -61 47 -149t151 -166q72 -55 150 -90q37 111 76 231.5t73 249.5q-174 98 -252.5 192.5t-78.5 215.5q0 88 33.5 165.5t97 135t152.5 90.5t200 33q14 0 28.5 -1t30.5 -3q14 66 25.5 124t19.5 105q43 -12 100.5 -34.5t88.5 -61.5 l-53 -170q68 -23 135 -54.5t133 -70.5q4 -29 5 -42t1 -28q0 -72 -33 -133t-82 -84q-37 66 -97 113t-132 78q-37 -117 -74 -228.5t-71 -220.5l24 -12q170 -92 258 -195.5t88 -257.5q0 -102 -34.5 -184t-96 -140.5t-147.5 -90t-191 -31.5q-104 0 -223 41q-35 -74 -66.5 -138.5 t-62.5 -117.5q-51 10 -66 73q23 35 49.5 90.5t55.5 126.5q-74 33 -142.5 77t-121 95.5t-83 107.5t-30.5 116zM598 1139q0 -35 23.5 -72t62.5 -75t90 -75.5t107 -72.5q29 111 56.5 215t51.5 205q-31 4 -60.5 7t-58.5 3q-55 0 -104 -10.5t-87 -27.5t-59.5 -41.5t-21.5 -55.5z M778 133q53 -16 104.5 -23.5t98.5 -7.5q86 0 141.5 20.5t87 48.5t44 58.5t12.5 53.5q0 39 -23.5 77.5t-66.5 77.5t-102.5 77t-129.5 75q-43 -125 -84 -238.5t-82 -218.5z" />
<glyph unicode="%" horiz-adv-x="1267" d="M178 14q80 72 178.5 181.5t204 241.5t213 278.5t207.5 294t186 289t150 260.5q25 0 55.5 -9.5t60 -24t52 -32t28.5 -33.5q-102 -154 -215.5 -309.5t-229.5 -304t-229.5 -286.5t-218 -258t-195.5 -217t-161 -165q-23 4 -50.5 32t-35.5 62zM465 1157q0 25 13.5 55.5t35 56 t51 43t60.5 17.5q39 0 67.5 -17.5t48 -45t28.5 -62.5t9 -69q0 -31 -14 -56.5t-36.5 -45t-49.5 -31t-51 -11.5q-29 0 -57.5 13.5t-52 36t-38 52t-14.5 64.5zM993 371q0 25 13.5 55.5t36 56t51 43t59.5 17.5q39 0 67.5 -17.5t48 -45t29 -61.5t9.5 -69q0 -31 -14.5 -57.5 t-37 -46t-49 -30.5t-51.5 -11q-29 0 -57.5 13t-51 37t-38 53.5t-15.5 62.5z" />
<glyph unicode="&#x26;" horiz-adv-x="1366" d="M197 215q2 96 39.5 191.5t97 177.5t134.5 147.5t150 104.5q-76 33 -107.5 77.5t-31.5 98.5q0 74 52.5 154.5t130 150t167 120t162.5 62.5q20 -4 58 -25.5t75 -52t67 -62.5t34 -54q-4 -25 -17.5 -55.5t-34 -60.5t-43 -56.5t-45.5 -42.5q-20 6 -24 20q25 25 47 71t22 87 q0 23 -10 30t-33 7q-57 0 -126.5 -45.5t-130 -113t-101.5 -144t-41 -140.5q23 -2 54.5 -13t62.5 -27.5t54.5 -35t29.5 -32.5q-100 -25 -185.5 -96.5t-146.5 -164t-95 -192.5t-34 -180q0 -72 30.5 -118t96.5 -46q55 0 119.5 36t133.5 96.5t137.5 137t133 157.5t120.5 160 t101 144q-18 -4 -39.5 -6t-50.5 -2q-74 0 -106.5 23.5t-32.5 74.5q0 33 12 76q39 -6 75 -8t87 -2q66 0 110 1t73.5 3t47 3t31.5 1q49 0 72 -36t43 -122q-59 6 -97 8.5t-67 2.5q-20 0 -36.5 -1.5t-30.5 -1.5q-72 -115 -165 -246.5t-200.5 -250.5t-224.5 -212t-234 -130 q-80 8 -145.5 38.5t-114.5 77t-77.5 106.5t-32.5 130z" />
<glyph unicode="'" horiz-adv-x="382" d="M469 1116q25 72 46.5 165t21.5 208q0 51 -5.5 104.5t-19.5 112.5q98 -6 179 -42t108 -87q-35 -186 -106.5 -323.5t-190.5 -215.5q-12 10 -22.5 33t-10.5 45z" />
<glyph unicode="(" horiz-adv-x="653" d="M285 362q0 250 61.5 472.5t161.5 401.5t228 310t259 199q29 -12 60.5 -43t59.5 -65.5t46.5 -65.5t20.5 -43q-162 -29 -298 -147.5t-235.5 -288.5t-156 -369t-56.5 -387q0 -82 5 -169t15.5 -169t26 -151.5t33.5 -114.5l-24 -27q-47 55 -85 119.5t-66 143.5t-42 176.5 t-14 217.5z" />
<glyph unicode=")" horiz-adv-x="659" d="M-86 -180q162 29 298 147.5t235.5 288.5t155.5 368.5t56 387.5q0 82 -5 169t-15 169t-25.5 150.5t-33.5 115.5l24 26q47 -55 85 -119.5t65.5 -143.5t42 -176t14.5 -218q0 -250 -61.5 -472t-162 -402.5t-228.5 -310.5t-259 -197q-29 12 -60.5 42.5t-59 65.5t-46 65.5 t-20.5 43.5z" />
<glyph unicode="*" horiz-adv-x="931" d="M545 1468q23 78 57.5 109t71.5 31q29 0 58.5 -14.5t56 -39t49 -54.5t39.5 -60q14 35 19 71.5t5 73.5q0 31 -3 59.5t-7 59.5q100 -2 139 -37t39 -84q0 -51 -30.5 -107.5t-69.5 -97.5q59 2 121.5 20.5t130.5 47.5q6 -31 6 -82q0 -23 -1 -45.5t-10.5 -40.5t-28 -30.5 t-52.5 -12.5q-49 0 -98.5 7t-100.5 30q20 -55 55 -107.5t86 -111.5q-39 -23 -79 -35t-74 -12q-35 0 -55.5 25.5t-31 61t-13.5 74.5t-3 66v19.5t2 19.5q-47 -37 -85 -86t-76 -119q-14 12 -31 29.5t-32 39t-25.5 47t-10.5 54.5q0 25 29 48.5t66.5 43t75.5 32.5t54 17 q-47 31 -106 52.5t-137 37.5z" />
<glyph unicode="+" horiz-adv-x="1140" d="M252 537q0 10 5 31.5t9 31.5q39 -6 75 -8t93 -2h93t89 4q47 129 95.5 230.5t95.5 160.5q25 -4 63.5 -20.5t76.5 -36t69 -40t39 -32.5q-47 -51 -88 -111.5t-82 -132.5q74 6 128 12.5t83 6.5q45 0 79.5 -47t51.5 -135q-59 6 -97 8t-67 2q-74 0 -140.5 -5t-125.5 -14 q-39 -86 -74 -176t-66 -184q-41 6 -85 32.5t-85 63.5q16 59 33 117.5t33 116.5q-35 -4 -69.5 -6.5t-69.5 -2.5q-74 0 -118 36t-44 100z" />
<glyph unicode="," horiz-adv-x="491" d="M2 -268q102 88 146.5 168t44.5 174q0 61 -5.5 105t-19.5 102q51 -4 101 -17.5t90 -33t67 -45t33 -50.5q-96 -340 -424 -481q-12 10 -22.5 33.5t-10.5 44.5z" />
<glyph unicode="-" horiz-adv-x="1077" d="M279 516q0 10 4 30.5t8 31.5q35 -6 65.5 -7.5t79.5 -1.5q104 0 195.5 6.5t165 14.5t127 14t82.5 6q39 0 68.5 -47t43.5 -135q-51 6 -84 8t-57 2q-88 0 -164 -9t-143.5 -19.5t-129 -19.5t-122.5 -9q-63 0 -101 36t-38 99z" />
<glyph unicode="." horiz-adv-x="493" d="M141 2q0 25 7.5 63.5t17.5 78.5t20.5 76t14.5 54q25 0 62.5 -12t77.5 -33.5t76 -49t54 -56.5q-18 -41 -47 -78t-60.5 -64.5t-60.5 -43t-47 -15.5q-33 4 -68.5 27.5t-46.5 52.5z" />
<glyph unicode="/" horiz-adv-x="1116" d="M-23 -262q76 45 165 133t186.5 205t199 256t197.5 286.5t185 296t162 283.5t126 249t80 193q25 0 62.5 -12t74.5 -30.5t66 -39t35 -36.5q-172 -301 -360.5 -586t-379 -530.5t-373 -442t-340.5 -319.5q-23 4 -50 31.5t-36 62.5z" />
<glyph unicode="0" horiz-adv-x="1323" d="M272 369q0 125 35 258t97.5 259t147.5 239.5t185.5 198.5t212 135t226.5 50q86 0 148 -31.5t104 -88t62.5 -135t20.5 -171.5q0 -121 -29.5 -254t-85 -260t-134 -242.5t-179 -203.5t-219.5 -141.5t-254 -55.5q-74 14 -136 44t-106 82t-70 129t-26 188zM528 285 q0 -139 49.5 -196.5t143.5 -74.5q92 4 175 70t152.5 167t126 225t95.5 247t59.5 232.5t20.5 181.5q0 113 -26 183.5t-85 84.5q-94 -12 -183 -74.5t-168 -157t-144.5 -212t-113.5 -238.5t-75 -235.5t-27 -202.5z" />
<glyph unicode="1" horiz-adv-x="897" d="M70 31q8 8 39.5 17t77.5 20.5t104.5 21.5t120.5 21q29 123 64.5 253t73.5 260t79 257t82 245q-70 -33 -144.5 -87t-128.5 -101q-23 12 -22 55q76 102 153.5 182t171.5 171q23 23 54.5 63.5t54.5 81.5q29 -8 72 -17.5t85 -22.5t75.5 -31.5t45.5 -43.5q-27 -23 -48 -47 t-38 -53q-41 -74 -95 -206t-110.5 -288.5t-112.5 -325.5t-101 -317q43 4 78.5 6t64.5 2q68 0 105.5 -33.5t37.5 -93.5q0 -16 -3 -33.5t-7 -29.5q-27 4 -59.5 7t-77.5 3q-61 0 -126 -8t-126 -17.5t-118.5 -17.5t-106.5 -8q-80 0 -137.5 30.5t-77.5 84.5z" />
<glyph unicode="2" horiz-adv-x="1155" d="M178 41q12 59 43 110.5t83 106.5t130 119.5t184 152.5q119 98 215.5 184.5t163 165t102.5 155.5t36 157q0 100 -51.5 157.5t-135.5 57.5q-59 0 -114.5 -27.5t-98.5 -76t-69.5 -111t-26.5 -131.5q0 -51 15.5 -91t47.5 -81q-29 -6 -53 -6q-49 0 -90 16t-70.5 45t-46 68 t-16.5 86q0 78 45 148.5t119 123.5t167 85t189 32q84 0 153.5 -24.5t119 -70.5t76 -109.5t26.5 -139.5q0 -98 -44 -190.5t-122 -184.5t-185.5 -189.5t-232.5 -205.5q-57 -49 -97 -88t-68.5 -75t-50 -70t-40.5 -72q164 10 327 73.5t279 165.5q8 -10 20.5 -31.5t22 -49 t16.5 -59.5t7 -63q0 -51 -23 -88q-20 -23 -58 -35t-89 -18t-110.5 -8t-122.5 -2q-61 0 -123 -3t-118 -10.5t-104.5 -21.5t-80.5 -39q-49 23 -89 67t-57 95z" />
<glyph unicode="3" horiz-adv-x="1136" d="M184 162q0 6 1 12t1 14q63 -20 164 -20q104 0 225 24.5t223.5 71.5t170 117t67.5 162q0 68 -44 111.5t-138 56.5q-61 -37 -117.5 -52.5t-85.5 -15.5q-47 0 -79.5 41t-32.5 125q92 0 195.5 20.5t189.5 70.5t144 133t62 210q-10 41 -48 59.5t-91 18.5q-49 0 -107.5 -14.5 t-116.5 -40t-112.5 -61.5t-93.5 -77q-41 25 -64.5 75t-23.5 116v18.5t2 18.5q31 20 84 39.5t114.5 34t124 22.5t111.5 8q84 0 143.5 -23.5t96.5 -61.5t53.5 -85t16.5 -96q0 -51 -19.5 -108.5t-56.5 -115t-89.5 -111.5t-115.5 -97q135 -16 196.5 -82t61.5 -176 q0 -104 -39 -187.5t-105.5 -148t-152.5 -110.5t-181 -75.5t-193.5 -43t-186.5 -13.5q-76 16 -115 80t-39 156z" />
<glyph unicode="4" horiz-adv-x="1167" d="M213 614q162 184 299 399.5t242 440.5q72 -23 142.5 -55.5t129.5 -81.5q-70 -80 -148.5 -173t-155.5 -185.5t-143.5 -176.5t-111.5 -147q53 -23 109.5 -32t113.5 -9q39 0 87 2t87 6q100 209 201 408.5t205 398.5q61 -14 125.5 -46t99.5 -85q-109 -150 -203 -309.5 t-180 -329.5l100 20q18 -20 21 -45l-162 -59q-74 -152 -129 -304.5t-90 -313.5q-61 2 -118.5 15t-100.5 60q37 123 82 241t98 236q-39 -4 -89 -9t-91 -5q-55 0 -114.5 5t-115 20.5t-104.5 42t-86 71.5z" />
<glyph unicode="5" horiz-adv-x="1101" d="M152 113q76 2 163.5 19.5t177 50t171 78.5t145 101.5t101.5 120t38 135.5q0 125 -141 125q-66 0 -135.5 -20.5t-130.5 -60.5q-45 16 -99.5 46.5t-83.5 71.5q27 74 73 170.5t96.5 191.5t99.5 179t84 131q41 -16 90 -44t90 -67q29 2 81 11.5t107.5 20.5t105.5 22.5t75 19.5 q70 -33 108.5 -98.5t71.5 -159.5q-125 33 -265.5 51.5t-273.5 18.5q-43 -37 -83 -88.5t-74.5 -105.5t-62.5 -103t-46 -84q72 29 147 28q70 0 127.5 -26.5t98.5 -73.5t63.5 -109.5t22.5 -136.5q0 -113 -70 -220t-180.5 -191t-246.5 -136.5t-271 -54.5q-49 10 -100.5 57.5 t-73.5 129.5z" />
<glyph unicode="6" horiz-adv-x="1157" d="M221 254q0 119 40 248t107.5 256t157.5 246.5t191.5 218t206 171t202.5 105.5q23 0 60 -14.5t77 -38t75.5 -53t58.5 -60.5q-72 -10 -181.5 -66.5t-226.5 -147.5t-226.5 -211t-182.5 -255q49 51 104 97.5t111.5 82t113 58t107.5 24.5q43 -23 86 -58.5t77.5 -77.5t57.5 -89 t23 -94q0 -61 -34 -137t-89.5 -153t-127 -148.5t-146.5 -128t-148.5 -90t-130.5 -33.5q-160 33 -261.5 119t-101.5 229zM442 211q0 -31 10.5 -63.5t29 -61.5t43 -52.5t50.5 -31.5q82 39 171.5 119t164 175t123.5 194.5t49 179.5q0 41 -16 81.5t-55 67.5 q-127 -41 -231.5 -109.5t-179.5 -151.5t-117 -173t-42 -174z" />
<glyph unicode="7" horiz-adv-x="1140" d="M414 610q0 14 8 35t19.5 40.5t26 36.5t26.5 23q47 8 94 12.5t94 4.5q23 0 44.5 -1t43.5 -3q76 129 166 258t194 250q-72 27 -141 40t-125 13q-193 0 -243 -148q-78 14 -133.5 62.5t-73.5 116.5q74 150 272 149q57 0 124 -15.5t133.5 -39t131 -52t119.5 -57.5 q23 23 43 45.5t43 44.5q53 -23 99 -71.5t63 -102.5q-123 -66 -237.5 -209t-207.5 -327q96 -31 166 -78t105 -109l-15 -14q-49 29 -131 49.5t-180 34.5q-86 -193 -135 -387.5t-49 -351.5q-94 16 -170 56t-101 85q4 115 57.5 275.5t147.5 342.5q-84 0 -148.5 -4t-127.5 -12 q0 4 -1 4t-1 4z" />
<glyph unicode="8" horiz-adv-x="1165" d="M219 264q0 92 34 168t94.5 139.5t143 115.5t181.5 95q-72 66 -124 142.5t-52 179.5q0 86 44 158.5t112.5 126t154.5 87t170 44.5q154 -49 251 -127t97 -176q0 -53 -30.5 -105.5t-83 -100.5t-119 -90t-136.5 -75q43 -43 86 -87t77 -95.5t55.5 -109.5t21.5 -130 q0 -115 -48 -209t-125 -162.5t-173 -106.5t-191 -38q-90 0 -169.5 18.5t-140 59.5t-95.5 109.5t-35 168.5zM434 221q0 -57 16.5 -99t44 -69.5t63.5 -41t73 -13.5q51 0 104 25.5t96 74.5t70 121t27 164q0 98 -47 171t-113 136q-92 -53 -156.5 -112.5t-103.5 -120t-56.5 -121 t-17.5 -115.5zM762 1163q0 -72 32.5 -129t82.5 -110q39 25 85 65.5t85.5 87.5t66.5 95.5t27 91.5q0 66 -32 104.5t-79 46.5q-43 -8 -90 -31.5t-87 -58.5t-65.5 -77t-25.5 -85z" />
<glyph unicode="9" horiz-adv-x="1134" d="M227 39q72 8 175.5 71.5t214 161t215 221t176.5 255.5q-45 -47 -99.5 -94.5t-111 -86.5t-111.5 -63.5t-102 -26.5q-43 23 -84 62t-74 85t-53.5 96t-20.5 97q0 61 35 135t91.5 149t128 144.5t147 123.5t147.5 87t129 33q160 -33 256 -126t96 -237q0 -82 -39.5 -197.5 t-108.5 -243.5t-160 -258t-191.5 -241.5t-206 -193.5t-203.5 -115q-29 8 -67.5 26.5t-75.5 41t-67 48t-36 46.5zM547 756q0 -47 11 -90t40 -72q100 20 203.5 87t185.5 155t134.5 186t52.5 184q0 29 -15.5 60.5t-40 60.5t-56.5 50.5t-65 31.5q-49 -27 -102 -71t-103.5 -99 t-94.5 -118.5t-77.5 -127t-53 -125t-19.5 -112.5z" />
<glyph unicode=":" horiz-adv-x="583" d="M178 2q0 25 7.5 63.5t17.5 78.5t20 76l15 54q25 0 62.5 -12t77.5 -33.5t75.5 -49t54.5 -56.5q-18 -41 -47 -78t-60.5 -64.5t-60.5 -43t-47 -15.5q-33 4 -69 27.5t-46 52.5zM383 653q0 25 7 64t17.5 79t20.5 75.5t14 54.5q25 0 63 -12.5t78 -34t75.5 -49t54.5 -56.5 q-18 -41 -47 -78t-61 -64.5t-60.5 -43t-46.5 -15.5q-33 4 -69 28t-46 52z" />
<glyph unicode=";" horiz-adv-x="581" d="M47 -268q102 88 146.5 168t44.5 174q0 61 -5.5 105t-19.5 102q51 -4 101.5 -17.5t90 -33t66.5 -45t33 -50.5q-96 -340 -424 -481q-12 10 -22.5 33.5t-10.5 44.5zM375 653q0 25 7 64t17.5 79t20.5 75.5t14 54.5q25 0 63 -12.5t77.5 -34t75.5 -49t55 -56.5q-18 -41 -47 -78 t-61 -64.5t-61 -43t-47 -15.5q-33 4 -68.5 28t-45.5 52z" />
<glyph unicode="&#x3c;" horiz-adv-x="1056" d="M233 492q8 29 38 61.5t69 68t83 70.5t83 70q57 51 103 101t90 106.5t91.5 127t106.5 165.5q49 0 92 -15.5t75 -39t50.5 -52.5t18.5 -57q0 -23 -4.5 -45.5l-8.5 -42.5q-12 10 -28 10q-20 0 -63.5 -31t-99 -79t-117.5 -109.5t-123.5 -122t-115 -113.5t-90.5 -88 q14 -10 33 -18t47.5 -14.5t71.5 -9.5t106 -3q41 0 93.5 4t103.5 10.5t97 12.5t77 12q2 -6 2 -16q0 -16 -7 -35t-15 -29q-125 -29 -233.5 -48t-225.5 -19q-49 0 -106.5 5t-113 23.5t-102.5 51t-78 88.5z" />
<glyph unicode="=" horiz-adv-x="1167" d="M258 315q0 18 3 38t13 40q35 -4 65 -8t79 -4q104 0 196.5 6t166 12.5t127 12.5t81.5 6q39 0 67.5 -47t43.5 -131q-51 4 -83 6t-56 2q-88 0 -164 -9.5t-143.5 -19.5t-129.5 -19.5t-123 -9.5q-70 0 -106.5 36t-36.5 89zM389 721q0 14 4 34.5t8 32.5q35 -4 66 -8t80 -4 q104 0 195.5 6t165 14.5t126.5 14.5t82 6q39 0 68.5 -46t44.5 -132q-51 6 -84 8t-58 2q-88 0 -163.5 -9t-143 -20.5t-129.5 -20.5t-123 -9q-63 0 -101 36t-38 95z" />
<glyph unicode="&#x3e;" horiz-adv-x="1275" d="M262 475q0 61 56.5 91t150.5 34q68 2 165 5t196.5 6t188.5 5t142 2q-4 18 -11 35t-24.5 38.5t-45 51t-70.5 72.5q-41 39 -91.5 79t-105.5 75t-114.5 63.5t-116.5 46.5q6 16 29.5 30.5t39.5 16.5q88 -25 166 -62.5t146.5 -83.5t131 -100.5t122.5 -111.5 q45 -45 85.5 -115.5t40.5 -152.5q0 -31 -6 -58q-27 -16 -68.5 -21t-92.5 -5q-59 0 -123 3t-119 3q-74 0 -138.5 -6t-134 -19.5t-148.5 -34t-183 -49.5q-68 94 -68 162z" />
<glyph unicode="?" horiz-adv-x="983" d="M266 -39q0 18 6.5 52t19.5 68t33.5 59.5t51.5 25.5q18 0 46 -11.5t54.5 -28.5t51 -41t36.5 -48q-23 -25 -42 -58.5t-37.5 -64.5t-41 -51.5t-51.5 -20.5q-16 0 -37.5 7.5t-41 21.5t-34 36.5t-14.5 53.5zM401 365q0 47 22.5 113.5t69 139t119 146.5t172.5 133 q162 96 242 186.5t80 161.5q0 33 -13.5 63.5t-34 55.5t-48 40t-54.5 15q-31 0 -68.5 -30.5t-70.5 -75.5t-55.5 -98.5t-22.5 -96.5q0 -29 6 -37q-16 -4 -26 -4h-21q-41 0 -80.5 8.5t-73.5 20.5t-57.5 29.5t-29.5 35.5q14 68 57 139.5t98.5 132t117 101.5t116.5 47 q80 -6 154.5 -40.5t132 -88t92.5 -123t35 -145.5q0 -78 -28 -145.5t-81 -137t-131 -144.5t-176 -169q-96 -90 -145.5 -183t-49.5 -169q0 -10 1 -20.5t3 -22.5q-35 2 -73.5 16t-74.5 38t-63.5 51.5t-40.5 56.5z" />
<glyph unicode="@" horiz-adv-x="1341" d="M250 365q0 59 19.5 136t58.5 157.5t99 160.5t140 148q94 78 197.5 120.5t208.5 42.5q94 0 179 -34.5t149.5 -91t103.5 -127t39 -140.5q0 -55 -23.5 -117.5t-62.5 -125t-90 -120t-105.5 -101.5t-110 -69.5t-100.5 -25.5q-43 0 -86 21.5t-77.5 55.5t-56 76t-21.5 85 q0 49 18.5 101t55 98.5t92 84t129.5 60.5q37 -14 70.5 -39t60 -55.5t43 -64.5t18.5 -66q-39 16 -82 16t-81 -18.5t-65.5 -47t-44 -66.5t-16.5 -77q0 -57 58 -57q53 0 122.5 51t131 127t104.5 159t43 148q0 43 -19.5 80t-53 64.5t-79 43t-96.5 15.5q-106 0 -216.5 -64.5 t-202 -166t-148.5 -226.5t-57 -246q0 -76 22.5 -141.5t62.5 -114.5t94 -77.5t118 -28.5q90 0 199.5 65.5t269.5 212.5q10 -18 13 -26t3 -19q-61 -61 -124.5 -120.5t-130.5 -105.5t-137.5 -73.5t-144.5 -27.5q-102 0 -191 53t-155.5 134t-105.5 178t-39 186z" />
<glyph unicode="A" d="M125 -27q0 33 18.5 92.5t54 140.5t86 179t113.5 211q-53 2 -95 3t-69 1q12 31 69.5 53.5t152.5 38.5q80 133 171 254t183 222.5t184 178t176 121.5l3.5 24.5t1.5 14.5q29 0 76.5 -14t94 -34.5t82 -42t39.5 -36.5q-68 -119 -133 -355.5t-108 -565.5q-10 -82 -17.5 -186.5 t-7.5 -233.5v-92t4 -99q-4 -2 -8 -2h-16q-29 0 -67 9.5t-73.5 22.5t-61.5 29.5t-32 29.5q-2 27 -2 52v54q0 127 9.5 258t31.5 270q-29 2 -76 5.5t-105.5 5.5t-125 5t-129.5 5q-49 -92 -92 -183.5t-74 -183.5q-35 -98 -56.5 -196.5t-27.5 -184.5q-98 29 -136 57.5t-38 71.5z M621 713q172 14 391 18q16 86 35.5 171t42.5 173q8 29 19 79t21 106q-51 -18 -113.5 -67.5t-129 -122.5t-135 -164t-131.5 -193z" />
<glyph unicode="B" horiz-adv-x="1472" d="M276 76q20 61 54.5 152t75 192.5t82.5 202t79 180.5q78 174 139.5 288.5t112.5 182.5q-113 -35 -205 -79t-135 -85q-18 12 -37.5 36.5t-37 54.5t-28.5 60.5t-14 55.5q53 37 138.5 70.5t185.5 58t205.5 39t202.5 14.5q246 0 385 -98.5t139 -272.5q0 -127 -69.5 -226 t-190.5 -165q78 -53 124 -130t46 -169q0 -111 -66.5 -218t-177 -190t-252 -134.5t-289.5 -51.5q-160 0 -279.5 60.5t-187.5 171.5zM526 61q29 -16 69 -24t99 -8q139 0 266 38.5t223.5 105.5t154 153t57.5 180q0 135 -117 194q-158 -65 -354 -65h-6h-44.5t-35.5 4 q-39 18 -72 55q-47 -104 -89 -204.5t-75 -186.5t-53.5 -149.5t-22.5 -92.5zM819 817q35 8 85 13.5t100 5.5q27 0 52 -2.5t50 -6.5q98 16 177 48t136.5 74t88 93.5t30.5 108.5q0 98 -78 148.5t-225 50.5q-43 0 -91 -5.5t-102 -15.5q8 -8 13.5 -17t9.5 -20q-18 -25 -45 -71.5 t-59.5 -109t-68.5 -138.5t-73 -156z" />
<glyph unicode="C" horiz-adv-x="1236" d="M291 401q0 143 33.5 281.5t95 262.5t146.5 227.5t186.5 179t216 117.5t235.5 42q141 0 220 -59t79 -166q0 -41 -11 -84t-32.5 -85t-50.5 -81t-63 -67q-53 8 -92.5 48t-49.5 93q72 59 114 123.5t42 118.5q0 90 -113 90q-47 0 -97 -19.5t-101.5 -54.5t-99.5 -84t-89 -108 q-285 -410 -285 -838q0 -152 47.5 -244t125.5 -108q88 20 223 112t295 240q20 -20 24 -43q-59 -78 -122.5 -149.5t-126 -131t-123 -104.5t-111.5 -70q-254 4 -385 145.5t-131 415.5z" />
<glyph unicode="D" horiz-adv-x="1593" d="M319 1092q20 94 77 171.5t143 133t198.5 85t241.5 29.5q164 0 301 -48t235.5 -134t153.5 -207t55 -268q0 -201 -73.5 -383t-199.5 -321.5t-292 -222.5t-348 -83q-168 0 -288 66.5t-179 195.5q31 68 74 174.5t90 230.5t96 254t92 246.5t75 209t46 141.5 q-129 -53 -221 -161.5t-139 -272.5q-47 16 -86 58t-52 106zM580 41q29 -10 69.5 -14t87.5 -4q166 0 314.5 76.5t260 205.5t176 300t64.5 360q0 211 -131 327.5t-354 116.5q-102 0 -195 -29q90 -33 149.5 -68.5t82.5 -56.5q-16 -23 -48 -80t-74 -139t-89 -179t-92 -200 q-117 -260 -169 -409.5t-52 -206.5z" />
<glyph unicode="E" horiz-adv-x="1247" d="M221 14q35 74 97.5 224.5t158.5 402.5q-92 29 -121 102q10 10 59.5 25.5t121.5 32.5q31 80 52 139t37.5 111.5t30 102.5t25.5 110q-72 4 -113 39.5t-41 93.5q0 16 5.5 38.5t11.5 39.5q41 -6 79 -8.5t99 -2.5q129 0 241.5 7.5t204 15.5t157 15t99.5 7q47 0 84 -49t56 -139 q-63 6 -103.5 8t-70.5 2q-113 0 -206 -11t-179 -24q-12 -18 -27.5 -46.5t-40.5 -80t-60.5 -129t-86.5 -194.5q78 12 146.5 19t115.5 7q68 0 105.5 -36.5t37.5 -102.5q0 -16 -3 -33.5t-7 -29.5q-27 4 -59.5 7t-77.5 3q-88 0 -178.5 -15.5t-172.5 -25.5q-47 -109 -86 -210 t-66.5 -185t-43 -145.5t-17.5 -92.5q166 35 335 59.5t356 36.5q23 -35 38 -75.5t15 -87.5v-26.5t-4 -29.5q-57 2 -121 3t-166 1q-68 0 -128 -3t-121.5 -9t-130.5 -16.5t-155 -24.5q-94 37 -182 180z" />
<glyph unicode="F" horiz-adv-x="1128" d="M231 14q14 33 35 79t49.5 117t68.5 172t95 243q-86 29 -112 100q10 10 57 23.5t115 29.5q31 80 53 142.5t40.5 119t34 110.5t27.5 116h-10q-78 0 -126 36.5t-48 96.5q0 16 5 38.5t13 39.5q39 -6 77 -8.5t100 -2.5q129 0 241.5 7.5t203.5 15.5t156.5 15t100.5 7 q47 0 84 -49t57 -139q-66 6 -105.5 8t-70.5 2q-104 0 -191 -9t-165 -21q-12 -18 -27.5 -47t-40 -81.5t-62.5 -136.5t-95 -213q80 12 152.5 20.5t121.5 8.5q66 0 103.5 -37t37.5 -102q0 -16 -2 -33.5t-8 -30.5q-27 4 -59.5 7.5t-77.5 3.5q-92 0 -184.5 -16.5t-176.5 -27.5 q-92 -217 -151.5 -407.5t-91.5 -376.5q-70 16 -123 59.5t-101 120.5z" />
<glyph unicode="G" horiz-adv-x="1331" d="M289 412q0 211 77.5 408.5t206.5 351t296 246.5t348 93q141 0 220 -59t79 -168q0 -72 -34 -133t-112 -133q-47 14 -82 50t-43 83q70 51 98.5 94t28.5 103q0 94 -112 94q-92 0 -198 -68.5t-212 -197.5q-152 -182 -221.5 -376t-69.5 -435q0 -90 18.5 -164t49 -129.5 t72.5 -88t92 -36.5q66 14 131 66.5t119.5 123t92 151.5t46.5 154q-57 -12 -109.5 -23t-99.5 -11q-61 0 -107.5 30.5t-62.5 83.5q37 20 107.5 43t150.5 42.5t156.5 31.5t125.5 12q53 0 84 -36.5t31 -102.5q0 -16 -2 -33.5t-6 -29.5q-43 10 -94 12q-12 -90 -65.5 -189.5 t-129.5 -186.5t-166 -152.5t-178 -88.5q-274 6 -400 142.5t-126 425.5z" />
<glyph unicode="H" horiz-adv-x="1382" d="M147 14q16 33 38 84.5t51.5 124t67.5 169.5t87 226q-68 29 -90 80q10 8 46 17.5t89 19.5l27 66q43 111 70.5 186.5t47 148t37 160.5t41.5 224q86 -16 157 -76t122 -144q-18 -25 -45 -73.5t-58.5 -117.5t-68.5 -154t-80 -179q127 16 257 30.5t231 20.5q37 106 76.5 208 t78.5 186t75 147.5t64 93.5q20 -2 54 -15t69 -31.5t63.5 -40t39.5 -40.5q-37 -35 -74 -90t-73 -126.5t-70.5 -155.5t-65.5 -175q41 -37 41 -92q0 -39 -16 -71q-18 4 -37 5t-39 3q-35 -111 -63.5 -219.5t-48 -206.5t-31 -180t-11.5 -138q0 -20 1 -32.5t3 -20.5 q-45 2 -65.5 15.5t-30.5 29t-18.5 30.5t-26.5 23q-14 6 -26.5 29t-20.5 51.5t-12 57.5t-4 47q0 86 28.5 221t75.5 289q-135 -10 -271.5 -26.5t-236.5 -18.5q-92 -215 -146.5 -396.5t-84.5 -353.5q-78 18 -129.5 64.5t-94.5 115.5z" />
<glyph unicode="I" horiz-adv-x="645" d="M268 117q0 74 23.5 191.5t61.5 253.5t87 278.5t100.5 267.5t100.5 219t88 135q20 -2 54 -15t69 -31.5t63.5 -40t36.5 -40.5q-59 -53 -117.5 -160.5t-112.5 -244.5t-101.5 -290t-82 -296t-54 -266t-19.5 -199q0 -35 6 -43q-45 2 -65.5 15.5t-32 29t-20.5 30.5t-27 23 q-14 6 -24.5 29t-18 50.5t-11.5 56.5t-4 47z" />
<glyph unicode="J" horiz-adv-x="1048" d="M35 -57q0 57 28.5 144t88.5 206q25 -2 57.5 -12.5t65 -24.5t59 -31.5t39.5 -34.5q-66 -68 -107 -148.5t-41 -139.5q0 -35 13.5 -62.5t46.5 -50.5q125 47 243.5 175t210.5 319q55 113 100.5 258t77 291.5t49 280.5t17.5 226q0 14 -1 40t-2 53.5t-3 50t-2 30.5 q78 0 162 -28.5t147 -73.5q-20 -104 -37.5 -188t-32 -153t-27.5 -125t-26 -105q-49 -184 -101 -333t-110.5 -267.5t-123 -210.5t-138.5 -162q-72 -68 -143.5 -111t-132.5 -55q-82 0 -152 18.5t-120 50t-77.5 75.5t-27.5 98z" />
<glyph unicode="K" horiz-adv-x="1337" d="M152 14q18 39 43.5 102.5t62.5 157t88 223.5t119 304q43 111 70.5 186.5t47 148t38 160.5t43.5 224q86 -16 156.5 -76t121.5 -144q-23 -29 -52.5 -87t-66.5 -140t-82 -182t-94 -213q-111 -246 -174 -450t-98 -394q-78 18 -129 64.5t-94 115.5zM684 649q127 188 251 347 t236.5 273.5t207 178t163.5 63.5q27 0 58.5 -20.5t59.5 -53t46 -70.5t18 -73q-127 -41 -248.5 -107.5t-233.5 -153.5t-213 -193.5t-183 -227.5q33 -84 81 -179t105.5 -184t123 -165t132.5 -121q-10 -23 -34.5 -43t-53.5 -37.5t-60.5 -28t-58.5 -10.5q-53 0 -98 50.5 t-91 151.5t-96.5 251.5t-111.5 351.5z" />
<glyph unicode="L" horiz-adv-x="1024" d="M152 14q20 45 50.5 112t71.5 162t91.5 223t107.5 296q37 111 63.5 194.5t48 162.5t42 165t45.5 199q82 -16 142 -60.5t116 -126.5q-16 -27 -43 -86t-63 -144t-79 -192.5t-90 -230.5q-45 -121 -88 -227.5t-76.5 -192.5t-54 -147.5t-20.5 -91.5q33 2 59.5 4t55 7t62.5 12 t81 20q41 10 75.5 17t68.5 12t70 8.5t81 7.5q51 -88 51 -170q0 -18 -3 -33.5t-7 -32.5q-35 4 -73 6t-79 2q-49 0 -99 -3t-111.5 -9t-137.5 -16.5t-176 -26.5q-47 16 -94 64.5t-88 115.5z" />
<glyph unicode="M" horiz-adv-x="1929" d="M96 -29q0 37 22.5 104.5t63.5 160t100.5 206t131.5 244.5q82 150 160.5 281t154.5 237.5t148.5 184t144.5 118.5q29 0 77 -14t94 -34.5t82 -42t40 -36.5q-29 -57 -68 -171.5t-79 -260t-75.5 -308.5t-56.5 -312q47 113 109.5 234.5t132.5 241.5t142.5 232.5t142 205.5 t130 163t107.5 102q29 0 77 -14t94 -34.5t82 -42t40 -36.5q-66 -117 -115 -284.5t-82.5 -352t-51 -365.5t-17.5 -325v-98t4 -107q-29 0 -69 7.5t-77.5 19.5t-68.5 27.5t-43 34.5q-2 29 -2 59.5v58.5q0 229 33.5 479t111.5 541q8 29 18.5 78t20.5 102q-57 -29 -130 -109.5 t-147.5 -196t-147.5 -257t-131 -288t-98 -291t-48 -265.5q-4 -2 -8.5 -2h-16.5q-29 0 -66.5 9.5t-73.5 22.5t-61.5 29.5t-31.5 29.5q-2 29 -2 59.5v58.5q0 229 33.5 479t111.5 541q8 29 17.5 73t19.5 95q-49 -39 -116.5 -124t-142.5 -200.5t-149.5 -254t-136 -280.5 t-105.5 -281.5t-55 -258.5q-98 29 -136 57.5t-38 69.5z" />
<glyph unicode="N" horiz-adv-x="1398" d="M190 -2q0 61 29 173t75 249t105.5 286.5t121 286.5t119.5 251t103 177l-14 86q29 0 80 -14t103.5 -34.5t92 -42t44.5 -36.5q-10 -49 -16.5 -148t-6.5 -212q0 -223 17.5 -437t80.5 -436q33 164 71 327t79 311.5t82 275.5t79 222t70.5 149.5t59.5 58.5q23 -4 49 -17.5 t51 -32t45.5 -41t32.5 -44.5q-66 -27 -130.5 -125t-122.5 -238.5t-108.5 -304.5t-88.5 -322.5t-59.5 -293.5t-23.5 -217q0 -4 2 -7q-6 -2 -13 -2h-13q-94 0 -167 24t-95 67q-43 172 -72 331.5t-48.5 319.5t-30.5 322.5t-17 340.5q-39 -61 -82 -160.5t-84 -218t-79 -249.5 t-66.5 -256t-45 -237t-16.5 -193q0 -43 1 -62t5 -31q-117 35 -158 67t-41 87z" />
<glyph unicode="O" horiz-adv-x="1480" d="M276 301q0 125 28 264.5t78 274.5t119.5 257t152.5 215t178.5 148.5t195.5 55.5q33 0 61.5 -5.5t61.5 -19.5q39 -16 80 -42t75.5 -52.5t58.5 -52t26 -41.5q-35 8 -70 11t-64 3q-92 0 -183 -45t-173 -123t-151.5 -182.5t-119.5 -223t-79 -245.5t-29 -250q0 -160 53.5 -238 t155.5 -78q49 0 106.5 19.5t117 54.5t116.5 84t107 109q72 86 129 195.5t97 232.5t61.5 253t21.5 255q0 49 -2 82.5t-5 57t-5 38t-5 24.5q25 -12 54.5 -29.5t55.5 -51t43 -89t17 -143.5q0 -143 -33.5 -281.5t-94 -263.5t-142.5 -233.5t-176 -190.5q-123 -109 -262 -168 t-268 -59q-188 0 -288 120t-100 353z" />
<glyph unicode="P" d="M266 14q20 39 49 102.5t70 157t95.5 223.5t127.5 304q33 80 57.5 139t43 111.5t34 103.5t31.5 113q-96 -31 -177 -72t-134 -86q-18 12 -37.5 36.5t-36 54.5t-29 60.5t-14.5 55.5q59 41 147.5 75.5t188.5 60.5t207.5 40t206.5 14q117 0 211 -29.5t159.5 -83t100.5 -127 t35 -163.5q0 -113 -56.5 -215.5t-152 -179t-223.5 -121.5t-271 -45q-51 0 -81 13t-66 52q-102 -223 -167 -410.5t-102 -363.5q-78 18 -127 64.5t-90 115.5zM809 731q160 0 291 30t224 82t145.5 121.5t52.5 149.5q0 106 -72 171t-213 65q-78 0 -160 -13l25 -37 q-20 -27 -51 -80t-68 -127.5t-81 -166.5t-93 -195z" />
<glyph unicode="Q" horiz-adv-x="1472" d="M98 -221q12 104 77 159.5t200 71.5q-94 82 -94 287q0 143 33.5 289.5t92 282t137.5 253t170 205.5t189 138.5t195 50.5q35 0 64.5 -6.5t60.5 -18.5q35 -16 73.5 -42t71.5 -53.5t55.5 -53t22.5 -39.5q-29 6 -62.5 10t-64.5 4q-111 0 -215.5 -48t-198.5 -138.5t-173 -220.5 t-136 -294q-47 -137 -75.5 -271t-28.5 -224q0 -115 47 -119q12 0 41.5 -5t63.5 -13.5t67.5 -17.5t56.5 -17q78 4 182.5 71.5t204.5 180.5q88 98 158.5 216t120 248t75 267t25.5 272q0 41 -2 80t-6 53q84 -41 118.5 -96t34.5 -141q0 -123 -38.5 -264.5t-107.5 -282.5 t-163 -271t-205 -233q-145 -135 -237 -151q55 -29 126.5 -63t139.5 -63.5t121 -50t71 -22.5q20 2 53.5 25.5t55.5 56.5q10 -12 19.5 -32.5t11.5 -31.5q-8 -29 -34 -66.5t-58.5 -73.5t-66.5 -62.5t-58 -32.5q-35 2 -65 9t-64.5 22.5t-77.5 43t-107 70.5q-113 78 -196.5 129 t-153.5 82t-131 43.5t-127 12.5q-229 0 -254 -154q-31 14 -35 39z" />
<glyph unicode="R" horiz-adv-x="1415" d="M264 14q8 18 17.5 36t23.5 49.5t35.5 80.5t57.5 131t86.5 201t121.5 289q33 76 56.5 133t42 109.5t34 104.5t31.5 120q-94 -33 -175 -73t-134 -85q-18 12 -38 36.5t-36 54.5t-28.5 60.5t-14.5 55.5q61 41 150.5 75.5t189.5 60.5t204.5 40t194.5 14q246 0 381 -101.5 t135 -277.5q0 -98 -44 -185t-121.5 -155.5t-182 -115.5t-227.5 -64q31 -92 75 -189t95 -187.5t106.5 -166t108.5 -124.5q-10 -20 -29.5 -41t-45 -38.5t-53.5 -28.5t-52 -11q-45 0 -86 43t-83 136t-88 241.5t-102 357.5h-45t-34 4q-14 8 -31 29q-55 -119 -98.5 -223.5 t-77 -201.5t-59 -188.5t-44.5 -185.5q-70 16 -121 59.5t-96 120.5zM815 750q154 0 283 28.5t223 80.5t146.5 123t52.5 157q0 102 -74 156.5t-227 54.5q-35 0 -70 -3.5t-74 -7.5l25 -39q-14 -18 -45 -73.5t-71 -132t-84 -166.5t-85 -178z" />
<glyph unicode="S" horiz-adv-x="1437" d="M207 281q0 41 23.5 104.5t84.5 132.5q6 -61 66.5 -145t181.5 -156q113 -66 232.5 -95.5t224.5 -29.5q115 0 186.5 29t112.5 68.5t57.5 80.5t18.5 66q-2 41 -38 79t-96.5 73.5t-140.5 72.5t-166 74q-129 57 -222 107.5t-153.5 102.5t-88 109.5t-27.5 130.5 q0 115 69.5 217.5t200.5 155.5q66 29 140.5 41t146.5 12q135 0 264 -37t258 -94q6 -35 9 -48t3 -36q0 -68 -29.5 -126t-80.5 -83q-41 55 -100.5 95.5t-130 66t-146.5 37.5t-147 12q-72 0 -134.5 -11t-110.5 -30.5t-76 -48t-28 -65.5q6 -45 55.5 -91t121 -90t158.5 -87.5 t171 -81.5q104 -49 180 -91.5t125.5 -92.5t74 -113.5t24.5 -153.5q0 -104 -35 -195.5t-101.5 -159t-160.5 -105.5t-211 -38q-115 0 -248 35t-249 95.5t-192.5 139.5t-76.5 167z" />
<glyph unicode="T" horiz-adv-x="1204" d="M442 1399q0 16 5.5 38.5t13.5 39.5q27 -12 79 -17.5t122 -5.5q104 0 236 9.5t253 19.5t213 19t119 9q76 0 109.5 -56t49.5 -150q-53 4 -105 7t-89 3q-66 0 -132.5 -4t-133.5 -13q-29 -59 -64 -140t-68.5 -169t-64.5 -175t-53 -157q-45 -135 -79 -249.5t-59.5 -214 t-44 -189.5t-32.5 -176q-137 20 -230 172q16 63 40 138t55.5 170t74.5 216t99 275q20 57 42.5 119.5t44 124t39 119t29.5 104.5q-86 -10 -163 -17.5t-136 -7.5q-82 0 -126 46t-44 112z" />
<glyph unicode="U" horiz-adv-x="1427" d="M330 270q0 129 28.5 292t76.5 332t111.5 329.5t133.5 287.5q35 -2 82 -14t92 -31.5t83 -43.5t56 -44q-90 -121 -163.5 -266t-126 -297.5t-80 -301t-27.5 -277.5q0 -160 47 -232t162 -72q133 0 233.5 93.5t188.5 257.5q57 106 98 233t66.5 261t38 270.5t12.5 261.5 q0 80 -2 116.5t-6 59.5q6 0 30.5 -4t56 -10.5t63.5 -16.5t54 -22q-10 -156 -37.5 -322t-72.5 -327.5t-104.5 -311t-133.5 -268.5q-109 -176 -244 -275.5t-319 -99.5q-188 0 -292.5 109.5t-104.5 332.5z" />
<glyph unicode="V" horiz-adv-x="1263" d="M489 561q0 92 2.5 194.5t5.5 218.5t5 248t2 287q27 0 80 -15t105 -35.5t93 -42t45 -36.5q-20 -57 -35.5 -149t-24.5 -205t-13 -237.5t-4 -247.5q0 -92 2 -165t5 -131.5t9 -108.5t14 -99q57 174 126 348t141.5 335t144.5 300t136.5 242.5t115.5 164t84 64.5 q23 -4 48.5 -17.5t48 -32t40.5 -41t29 -44.5q-76 -27 -163 -125t-175 -236.5t-171 -301.5t-149.5 -318.5t-114 -290.5t-63.5 -215q-47 -25 -100 -25q-66 8 -126.5 33t-88.5 60q-16 100 -26.5 184t-16.5 158.5t-8.5 143.5t-2.5 138z" />
<glyph unicode="W" horiz-adv-x="1951" d="M449 305q0 137 9 263t22.5 264.5t29.5 301t29 375.5q27 0 77 -15t101 -35.5t90 -42t45 -36.5q-35 -80 -62.5 -210t-46 -283.5t-28.5 -315t-10 -303.5q0 -66 2 -129t6 -116q43 63 99 181t116.5 263t121 304t111.5 303.5t87 260t50 174.5q27 0 79.5 -15t102.5 -35.5t89 -42 t43 -36.5q-35 -80 -62.5 -210t-46 -283.5t-29 -315t-10.5 -303.5q0 -59 1 -117.5t5 -105.5q66 170 136.5 337t140.5 319.5t135.5 284.5t120.5 235.5t96 171t64 90.5q47 -6 97 -34t89 -71q-59 -47 -135 -154.5t-156 -248.5t-160.5 -301t-150.5 -311.5t-124 -282.5t-83 -211 q-53 -25 -104 -25q-66 8 -124.5 33t-82.5 60q-6 33 -10.5 76.5t-6.5 86.5t-3 83t-1 69q0 182 14.5 371.5t34.5 406.5q-47 -139 -104 -299t-119.5 -316.5t-127 -299t-126.5 -246.5q-53 -25 -104 -25q-66 8 -124 33t-83 60q-10 84 -15 183t-5 185z" />
<glyph unicode="X" horiz-adv-x="1304" d="M139 -6q6 23 31 63.5t61 87.5q78 100 222.5 232.5t349.5 292.5q-133 661 -376 661h-1q25 59 79 104.5t116 55.5q68 0 110.5 -17.5t77.5 -87t69.5 -210t88.5 -383.5q68 72 130 146.5t115.5 144t94.5 129t63 102.5q23 39 23 80q0 37 -23 96q66 -39 99.5 -73t58.5 -93 q-4 -49 -27.5 -98t-82 -118t-161 -169t-268.5 -250q39 -184 76 -311t76 -208t84 -123t100 -56q-18 -18 -54 -42t-77 -43.5t-83 -34.5t-69 -17q-27 0 -47 20.5t-42.5 93t-52.5 210.5t-75 376q-117 -121 -217 -233.5t-171.5 -209t-112.5 -168t-41 -108.5q-25 2 -50.5 18.5 t-46 39t-34 49t-13.5 51.5z" />
<glyph unicode="Y" horiz-adv-x="1255" d="M428 1456q20 8 62 16.5t92.5 16.5t102.5 13t93 7q0 -51 9.5 -124.5t24.5 -157.5t35.5 -170t41 -158t40.5 -124t34 -68q154 168 275.5 356t225.5 424q53 -6 102.5 -28.5t78.5 -51.5q-113 -135 -204 -245.5t-167 -208t-140.5 -186.5t-125.5 -179q-31 -104 -57.5 -211 t-47 -204t-32 -180t-11.5 -143q-23 0 -72 9.5t-100 22t-93 24.5t-50 20q33 55 64.5 136t62 170.5t59.5 180.5t53 169q-51 160 -99 300t-93 253.5t-86 195.5t-78 125z" />
<glyph unicode="Z" horiz-adv-x="1429" d="M16 -162q0 53 21.5 85t58.5 52q123 176 279.5 349.5t335 335t369 308t380.5 267.5q-123 6 -260 6q-96 0 -190.5 -4t-178 -13.5t-154.5 -26.5t-120 -42q-8 29 -13 67t-5 111q0 47 2 95.5t18 82.5q100 -18 214 -33.5t232.5 -27.5t237.5 -19.5t230 -7.5q152 0 243 13 q33 -45 41 -106.5t8 -115.5q-236 -96 -446.5 -244.5t-382.5 -310t-297 -319.5t-186 -274q37 6 75.5 11t83.5 9t100.5 8t127.5 8q100 6 176 21.5t129 33t85 33t46 25.5q8 -18 19.5 -55t20.5 -81t15 -90t6 -85q0 -20 -1 -27.5t-3 -15.5q-92 6 -185 14t-185 8 q-123 0 -255.5 -13t-254 -41t-223 -71t-162.5 -102q-16 53 -34 91t-18 91z" />
<glyph unicode="[" horiz-adv-x="790" d="M92 -100q16 37 55 134t87.5 226t101.5 273.5t98 271.5q74 207 119 345t71.5 225t38 133t15.5 69q51 10 109.5 18.5t111.5 13.5t98 8t72 3q88 0 113.5 -27.5t25.5 -66.5q0 -10 -2 -17.5t-6 -21.5q-61 6 -127 6h-45t-55.5 -1t-58 -3t-50.5 -4q-8 -35 -31.5 -115 t-57.5 -188.5t-78 -235.5t-95 -258q-59 -152 -114.5 -295t-97.5 -262t-68.5 -203t-26.5 -116q31 8 74 19t90 21.5t94 17.5t84 7q72 0 96.5 -26.5t24.5 -65.5q0 -10 -2 -17.5t-6 -21.5q-61 6 -123 6q-88 0 -179.5 -11t-189.5 -28q-47 16 -86 67.5t-80 119.5z" />
<glyph unicode="\" horiz-adv-x="1351" d="M543 1522q6 16 34.5 36.5t65.5 39t75 30.5t62 12q29 -199 66 -396t78 -384.5t84 -357.5t84 -312.5t76.5 -250t64.5 -168.5q-8 -35 -36 -62.5t-50 -32.5q-68 113 -142.5 304.5t-152.5 435t-156.5 527.5t-152.5 579z" />
<glyph unicode="]" horiz-adv-x="788" d="M14 -193q0 10 2 17.5t7 21.5q61 -6 127 -6h44.5t55.5 1t57.5 3t50.5 4q8 35 32 115t57.5 188.5t77.5 235.5t96 258q59 152 114.5 295t97 262t68.5 203t27 117q-31 -8 -74 -19.5t-90 -22t-94 -17.5t-84 -7q-72 0 -96.5 26.5t-24.5 65.5q0 10 2 17.5t6 21.5q61 -6 123 -6 q88 0 179 11.5t190 27.5q47 -16 86 -67.5t79 -118.5q-16 -37 -55 -134.5t-87 -226.5t-101 -273.5t-99 -271.5q-74 -207 -119.5 -345t-71.5 -225t-37 -133t-15 -69q-53 -10 -110.5 -18t-111 -13.5t-98 -8.5t-71.5 -3q-88 0 -114 28t-26 66z" />
<glyph unicode="^" horiz-adv-x="739" d="M82 1069q78 45 145.5 121t128.5 192l-8 52q41 29 125 28h36t21 -2q8 -121 18.5 -208t26 -150.5t35 -106.5t47.5 -75q0 -2 -10 -2h-8q-59 0 -121.5 80.5t-109.5 203.5q-53 -80 -111.5 -133t-103.5 -53q-31 0 -59 14t-52 39z" />
<glyph unicode="_" horiz-adv-x="1165" d="M84 -74q0 10 5 32t9 32q43 -6 82 -8t99 -2q129 0 242.5 6t205.5 14t157.5 14t100.5 6q47 0 85 -47t54 -135q-63 6 -103 8t-71 2q-111 0 -204 -9t-176 -19t-160.5 -19.5t-153.5 -9.5q-78 0 -125 36t-47 99z" />
<glyph unicode="`" horiz-adv-x="583" d="M41 1260q0 29 10 63.5t27.5 68t38 61.5t43.5 40q43 -72 91 -133.5t98 -110.5t99.5 -84t94.5 -51q-47 -39 -113 -39q-33 0 -67.5 9.5t-80.5 31t-104.5 56t-136.5 88.5z" />
<glyph unicode="a" horiz-adv-x="962" d="M170 203q0 115 49 241.5t126 235t167 181.5t174 77q20 -6 46 -24.5t49.5 -43t40 -50t18.5 -44.5q-82 -12 -169 -79.5t-158 -163t-116 -204t-45 -202.5q0 -39 29 -49q59 12 137 101t189 276q20 37 45.5 82t52 94t52 99t48.5 97q20 0 48 -7t50.5 -18t38 -23.5t15.5 -22.5 q-41 -86 -76 -173t-59.5 -167t-38 -149.5t-13.5 -121.5q0 -57 12.5 -95t41.5 -54q-25 -16 -64 -26.5t-69 -10.5q-111 0 -111 152q0 117 78 319q-41 -94 -94.5 -177t-108.5 -146.5t-111.5 -103.5t-103.5 -48q-76 4 -123 72.5t-47 175.5z" />
<glyph unicode="b" horiz-adv-x="966" d="M225 203q0 121 31 272.5t81 309t117.5 310t140.5 279.5t146.5 215t139.5 117q20 -6 48.5 -20.5t57.5 -33t54.5 -37t37.5 -32.5q-225 -182 -390 -468t-269 -675q57 106 129 205.5t142.5 175.5t135 121t107.5 45q33 -8 63.5 -28.5t55 -50t41 -63.5t20.5 -71 q-2 -86 -29.5 -183t-73.5 -191.5t-104.5 -180.5t-123 -150.5t-129 -103.5t-122.5 -39q-25 0 -50 5.5t-46.5 14.5t-35 19.5t-13.5 20.5q94 63 184.5 162.5t164 215t124.5 240.5t70 240q0 25 -27 33q-29 0 -79 -50.5t-110.5 -128t-123 -174t-113.5 -191.5t-87 -178t-40 -135 q-20 0 -35 41q-4 10 -14 21.5t-33 28.5q-10 8 -20 19t-15 20q-8 16 -8 53z" />
<glyph unicode="c" horiz-adv-x="860" d="M211 360q0 117 48 226.5t127 194.5t180.5 137.5t209.5 52.5q106 0 163.5 -53.5t57.5 -151.5q0 -47 -13 -91t-34.5 -79t-50.5 -56.5t-57 -21.5q-25 0 -50.5 15.5t-41.5 39.5q137 125 137 228q0 59 -47 59q-41 0 -102.5 -39t-119.5 -102q-88 -98 -134 -218t-46 -251 q0 -166 74 -199q31 4 72 18.5t88 38t97 54.5t97 65q8 -6 14.5 -18t6.5 -23q-35 -43 -80 -84t-94 -74.5t-95.5 -57t-80.5 -29.5q-68 6 -127.5 41.5t-103.5 93t-69.5 131t-25.5 153.5z" />
<glyph unicode="d" horiz-adv-x="886" d="M162 186q0 70 21.5 152t57 163t84 157.5t102.5 138t109.5 104.5t108.5 55q41 0 94.5 -24.5t94.5 -63.5q-10 82 -25.5 155t-45.5 150.5t-79 170t-123 210.5q6 18 27.5 43t49.5 46.5t57.5 38t56.5 20.5q57 -63 108 -158.5t90 -205t60.5 -226.5t21.5 -223t-23.5 -219 t-65.5 -220.5t-97 -203.5t-119.5 -172t-134.5 -124t-139 -61q-141 16 -216 91t-75 206zM344 88q0 -103 92 -117q72 25 143.5 109t129 197.5t93.5 243.5t36 251v43t-2 16q-49 -20 -104.5 -69t-111 -113.5t-104.5 -140.5t-88 -151.5t-61.5 -145.5t-22.5 -123z" />
<glyph unicode="e" horiz-adv-x="827" d="M178 233q0 84 23.5 171.5t65.5 168t98.5 152.5t121 125t133 84t136.5 31q94 -13 176 -117q-8 -127 -45 -218t-105.5 -160t-167 -124t-229.5 -106q0 -12 -1 -25.5t-1 -28.5q0 -27 4 -55.5t14.5 -53t29 -39.5t46.5 -15q55 0 108.5 24.5t101.5 60t90 77.5t75 77 q20 -18 35 -35q-92 -123 -202 -203.5t-208 -103.5q-141 16 -220 103.5t-79 209.5zM401 317q164 82 273 202t117 261q-55 -8 -115 -45t-112 -98.5t-95 -143t-68 -176.5z" />
<glyph unicode="f" horiz-adv-x="700" d="M180 -424q16 104 37 211t52.5 243t79.5 317t122 439q-68 0 -106.5 -2t-75.5 -8q-8 8 -13.5 22.5t-5.5 26.5q20 8 84 21.5t140 23.5q49 156 112.5 280t137 212t155.5 135t166 47q25 0 47.5 -3t34.5 -3q18 14 49 25.5t53 11.5q25 0 64 -27q-16 -29 -34.5 -78t-31.5 -96 q-51 -152 -108 -196q-23 0 -25 59q-2 43 -12 84q-8 18 -11.5 32.5t-3.5 37.5q0 12 2.5 29.5t8.5 58.5q-35 0 -77 -43t-88 -122t-93 -187.5t-90 -239.5l172 6q10 -10 17 -46t9 -75l-225 12q-78 -231 -145.5 -442t-121 -389t-91.5 -318.5t-54 -226.5q-51 20 -61 78 q-8 55 -70 90z" />
<glyph unicode="g" horiz-adv-x="921" d="M-215 -610q0 12 8 22t19 21q25 -23 42 -35t32.5 -20.5t31.5 -10.5t39 -2q106 0 202.5 56.5t181.5 163t154.5 260t122.5 348.5q-25 -25 -60.5 -54.5t-74.5 -56.5t-76.5 -49.5t-64.5 -32.5q-35 6 -64.5 29.5t-52 58.5t-35 79t-12.5 93q0 80 30 164t79 165t115.5 152.5 t141 125t151.5 85t151 31.5q72 0 107.5 -29.5t52.5 -101.5q-23 12 -58 12q-49 0 -113.5 -39t-131 -101t-132 -143t-115.5 -165t-82 -164t-32 -143q0 -14 2 -17.5t6 -3.5q18 0 50 20.5t72 52.5t83 73.5t82 84.5q88 98 160.5 220.5t115.5 236.5q55 -4 98.5 -18.5t59.5 -30.5 q-70 -160 -111.5 -268.5t-72.5 -192.5q-55 -147 -103.5 -269t-98.5 -225.5t-108.5 -192.5t-132.5 -171q-35 -39 -78.5 -68.5t-90 -50t-90.5 -31t-81 -10.5q-49 0 -100 11.5t-95 31t-77 45t-47 54.5z" />
<glyph unicode="h" horiz-adv-x="1058" d="M197 35q0 72 14 169t42 207.5t65.5 231.5t84.5 242q41 109 95.5 219t118 216.5t132 203t138.5 176.5q33 0 70.5 -8.5t73.5 -21.5t65.5 -31.5t48.5 -36.5q-154 -158 -277 -319t-194 -302q-39 -78 -71 -145.5t-58.5 -134t-48 -133t-39.5 -140.5q393 502 583 502 q53 0 115 -35t109 -94q-63 -70 -131 -168t-124.5 -197.5t-92 -184.5t-35.5 -126q0 -20 6 -27.5t26 -7.5q31 0 49.5 8t22.5 8q10 -16 12 -22t2 -10q0 -8 -24.5 -23.5t-58 -31t-66.5 -27.5t-49 -12q-20 0 -41 11t-36 29.5t-24.5 41t-9.5 47.5q0 31 17.5 91t48 141t73.5 177 t93 197q0 8 -9 8q-6 0 -31.5 -16.5t-47.5 -32.5q-74 -55 -149 -136t-145.5 -177.5t-133 -204t-107.5 -215.5q-6 -14 -18.5 -26.5t-20.5 -12.5q-6 0 -17.5 14t-20.5 35.5t-17 44.5t-8 39z" />
<glyph unicode="i" horiz-adv-x="483" d="M201 137q0 18 3 46t11 74t21.5 111.5t33.5 157.5q4 20 18.5 65.5t38 95.5t57.5 97t81 70q35 -8 92 -42t98 -93q-47 -53 -78.5 -106.5t-57 -111t-47 -118.5t-48.5 -129q-23 -57 -41 -117.5t-21 -105.5q0 -37 -1 -52.5t-11 -15.5q-8 0 -32.5 10.5t-50 32t-46 54t-20.5 77.5 zM573 1130q0 18 5.5 50t13.5 69t20.5 77t24.5 73q25 0 60.5 -13.5t72.5 -35t67.5 -47t47.5 -48.5q-23 -23 -60 -62.5t-71.5 -83.5t-63 -83t-37.5 -55q-25 4 -43 21.5t-18 33.5q0 12 6 37q-10 10 -17.5 30.5t-7.5 36.5z" />
<glyph unicode="j" horiz-adv-x="483" d="M-426 -623q2 14 13.5 27.5t21.5 15.5q35 -37 72.5 -53t91.5 -16q66 0 116 39t101 150.5t110.5 313t143.5 529.5q76 303 148.5 443.5t152.5 140.5q57 0 137 -56q-66 -117 -101.5 -193.5t-52.5 -139.5q-35 -123 -73.5 -255.5t-76.5 -253t-70 -218t-50 -148.5 q-45 -121 -89 -205t-91 -137t-99.5 -77.5t-113.5 -24.5q-45 0 -89 9t-83 24.5t-70 38t-49 46.5zM559 1233q0 18 5 51t14.5 71t20.5 76.5t24 67.5q25 0 60.5 -13t72.5 -34.5t67.5 -47.5t46.5 -48q-25 -23 -61.5 -64t-71.5 -85t-63.5 -82t-34.5 -54q-25 4 -43 21.5t-18 35.5 q0 10 6 35q-25 25 -25 70z" />
<glyph unicode="k" horiz-adv-x="1056" d="M203 193q0 74 38 204.5t99 286.5t139 321.5t157 309t151.5 248t123.5 141.5q29 -2 63 -24.5t62.5 -54.5t48 -66.5t19.5 -63.5q-92 -74 -187.5 -189.5t-181.5 -254t-158.5 -293t-121.5 -303.5q66 113 137.5 205t143 157.5t140 101t130.5 37.5q90 -66 90 -174 q0 -66 -27 -132t-71 -122.5t-100 -96.5t-118 -52q20 -72 52 -145.5t76 -143.5t100.5 -129t128.5 -100q-10 -20 -31 -41t-49.5 -36t-62 -24.5t-66.5 -9.5q-55 0 -103.5 55.5t-87.5 159.5q-31 84 -59.5 201t-50.5 244q29 18 71.5 54t89.5 83q180 174 181 301q0 16 -23 16 q-41 -2 -96 -39t-117.5 -102.5t-127 -153.5t-124.5 -190q-25 -41 -45 -94.5t-35.5 -109.5t-23.5 -111.5t-8 -102.5q0 -29 6 -47q-63 6 -78 33q-16 25 -27.5 40t-23.5 25q-18 14 -30.5 61.5t-12.5 119.5z" />
<glyph unicode="l" horiz-adv-x="483" d="M197 131q0 90 43 253t120 380q127 346 239 576.5t218 359.5q25 -4 60.5 -20.5t70.5 -36t62.5 -40t36.5 -32.5q-160 -188 -281 -405.5t-221 -497.5q-86 -242 -131 -435.5t-45 -322.5v-43t2 -17q-29 4 -49.5 14.5t-26.5 24.5q-4 10 -22.5 30t-32.5 30q-18 12 -30.5 64 t-12.5 118z" />
<glyph unicode="m" horiz-adv-x="1566" d="M176 133q2 49 15.5 123t37.5 152q47 150 122 297t145 270q57 -12 103 -39t97 -78q-20 -63 -63 -134t-90 -148.5t-86 -159.5t-51 -166q57 82 136 188.5t161.5 200.5t164.5 159.5t148 65.5q25 0 53.5 -8t53 -20.5t41 -23.5t18.5 -17q-10 -41 -48 -112t-81 -148.5 t-80 -150.5t-43 -116q100 137 188 249t166 191.5t144.5 122.5t125.5 43q41 0 77 -21.5t50 -61.5q-18 -61 -60 -147.5t-85 -181.5t-77 -187.5t-34 -165.5q0 -43 12.5 -56.5t35.5 -13.5q25 0 46 9t31 9q12 -8 14.5 -20t2.5 -23q-41 -33 -84 -54t-97 -21q-49 0 -80.5 16t-52 45 t-28.5 65.5t-8 79.5q0 70 18 138.5t44 131t54.5 117t48.5 97.5q-33 -2 -80 -42t-101 -102.5t-112.5 -138.5t-112.5 -150.5t-102 -140t-79 -104.5q-45 18 -78 54t-47 89q10 63 28.5 132t48 142.5t73.5 154.5t108 171q-31 -2 -84 -44t-114.5 -108.5t-127 -149.5t-123.5 -163 q-76 -106 -126 -186t-72 -94q-53 39 -74 84t-31 100z" />
<glyph unicode="n" horiz-adv-x="1105" d="M154 57q0 39 11 98.5t30.5 132t48 152.5t63.5 160q78 180 142.5 282.5t80.5 110.5q53 -16 100.5 -72.5t69.5 -123.5q-23 -55 -69.5 -133t-94 -159t-85 -153.5t-43.5 -120.5q33 35 72.5 81t77.5 92.5t71 84t51 56.5q39 41 92 95t111.5 102.5t118 82t108.5 33.5 q53 0 89 -36t56 -74q0 -4 -15 -11.5t-44 -40.5q-29 -37 -64.5 -101.5t-69.5 -139t-56.5 -152.5t-22.5 -141q0 -51 13.5 -65.5t37.5 -14.5q23 0 47.5 10t38.5 10q8 -4 13.5 -17t5.5 -24q-16 -14 -39 -28.5t-47.5 -26.5t-48 -20.5t-41.5 -8.5q-59 0 -97.5 17.5t-60 46.5 t-29.5 69t-8 85q0 25 4 55.5t16.5 72.5t35 100t57.5 140q-4 0 -55.5 -28.5t-110.5 -88.5q-96 -92 -173 -182t-157 -201q-45 -63 -79 -107t-58 -58q-43 25 -63.5 68.5t-30.5 90.5z" />
<glyph unicode="o" horiz-adv-x="903" d="M184 260q0 82 24.5 170t70 171t106.5 156.5t133 127.5q113 84 211 84q66 -35 129 -146q10 0 18.5 1t18.5 1q109 0 109 -192q0 -129 -42 -245t-117 -210t-178.5 -158.5t-226.5 -91.5q-117 12 -186.5 102.5t-69.5 229.5zM379 158q0 -49 16.5 -94.5t36.5 -51.5 q92 20 169 76.5t133.5 140.5t88 190.5t31.5 227.5q0 53 -6 84t-21 53q-90 -27 -160.5 -86t-121.5 -125q-35 -47 -65.5 -102t-53.5 -111.5t-35 -108.5t-12 -93z" />
<glyph unicode="p" horiz-adv-x="1019" d="M2 -469q0 43 14.5 118t40 169t62.5 203.5t82 222.5q55 141 96 244.5t68.5 179t45 125t27.5 84.5q8 25 24.5 59.5t38 70t44 67.5t41.5 48q72 -10 135 -36.5t78 -51.5q-29 -27 -66 -83t-71.5 -122.5t-63.5 -136t-43 -123.5q20 35 53 76t101 113q76 78 142.5 120t115.5 42 q78 0 128 -43t50 -111q0 -147 -49 -291.5t-142 -261.5q-35 -45 -82 -86t-98 -72.5t-100 -50t-88 -18.5q-37 0 -64.5 15t-38.5 38q80 47 156 131t140.5 193.5t112.5 236.5t73 258q-78 -41 -140.5 -89t-124.5 -126q-74 -90 -116.5 -145.5t-70.5 -94t-45 -72.5t-38 -83 q-29 -66 -66.5 -173.5t-77.5 -240.5t-80 -283.5t-77 -300.5q-23 4 -39 33q-16 18 -23.5 26.5t-17.5 12.5q-29 8 -33 62q-8 27 -11 63.5t-3 83.5z" />
<glyph unicode="q" horiz-adv-x="925" d="M188 299q0 53 29 142t72 177q164 326 487 386q29 -4 58.5 -17.5t54 -34t42 -45t21.5 -47.5q4 12 29 30.5t37 18.5q33 0 68.5 -15t52.5 -38q-76 -154 -128.5 -260.5t-90 -187t-66.5 -144t-57 -131.5q-49 -115 -92 -232.5t-77 -231t-59.5 -219t-38.5 -193.5q-8 -8 -36 -9 q-12 0 -23.5 6.5t-13.5 14.5q-4 10 -15.5 20.5t-27.5 14.5t-27.5 19t-15.5 34q23 360 215 815q-72 -72 -124 -114t-79 -46q-29 0 -62.5 30t-63.5 73t-49.5 93t-19.5 91zM377 125q0 -14 18 -14q74 53 135.5 112t120.5 139q68 92 119 176.5t86 149.5q41 76 72 143 q-6 6 -34 12.5t-50 6.5q-53 0 -126 -53.5t-130 -132.5q-102 -141 -156.5 -280.5t-54.5 -258.5z" />
<glyph unicode="r" horiz-adv-x="825" d="M150 41q10 59 35.5 156.5t60.5 207t73.5 220t75.5 198.5q27 63 47.5 99t44.5 61q29 -4 60 -14.5t59.5 -24.5t51 -29.5t34.5 -29.5q-55 -66 -97 -150t-85 -215q111 98 196 188.5t158 200.5q12 10 43 11q29 0 55.5 -9.5t36.5 -25.5q-36 -95 -36 -190v-5q0 -90 26 -135 q-2 -12 -27.5 -47t-56.5 -66q-55 29 -98 79t-64 110q-96 -68 -163.5 -132.5t-115.5 -143.5t-82 -181t-65 -244q-18 2 -43.5 13.5t-51 28t-46 35t-26.5 34.5z" />
<glyph unicode="s" horiz-adv-x="708" d="M41 -53q0 78 32.5 148.5t89 124.5t133.5 88t167 40q0 51 -10.5 100.5t-21.5 95.5t-21.5 90t-10.5 87q0 55 22.5 109.5t59.5 100.5t86 78.5t103 45.5q23 -6 60.5 -36t74.5 -67t65.5 -74.5t34.5 -62.5q-2 -39 -13 -81t-27.5 -75.5t-35 -56t-34.5 -22.5q-23 2 -27 30 q0 6 5 19.5t11.5 30t11.5 33t5 28.5q0 29 -13.5 48t-35.5 19q-82 0 -125 -102t-43 -301q0 -20 2 -25q43 2 76.5 3.5t66.5 1.5q2 -4 2 -17q0 -18 -8 -26q-47 -10 -74.5 -17.5t-42 -13.5t-17.5 -13.5t-3 -19.5q0 -16 1 -32.5t1 -41.5q0 -172 -93.5 -276.5t-258.5 -120.5 q-29 2 -60 16.5t-58.5 37t-48 50t-28.5 56.5zM188 -45q0 -45 41 -74q49 20 93.5 59.5t77 88.5t52 104t19.5 109q-41 -6 -90 -38t-92 -76t-72 -91t-29 -82z" />
<glyph unicode="t" horiz-adv-x="720" d="M256 123q0 49 13.5 124t38 163t57 184t71.5 190h-117q-10 12 -18 52.5t-8 68.5q53 -4 102 -7t90 -5q31 61 67 121.5t69.5 111t63.5 85t46 44.5q20 0 52 -7t65 -18t59.5 -23.5t36.5 -24.5q-61 -78 -105 -144.5t-96 -152.5q41 0 83 2t85 6q10 -10 16.5 -25.5t6.5 -31.5 q-100 -37 -244 -41q-51 -98 -91 -195.5t-67.5 -187.5t-43 -170t-15.5 -144q0 -90 68 -100q61 8 116.5 30.5t98.5 57.5q12 -18 14 -31q-12 -18 -42 -42.5t-64.5 -48t-67.5 -40t-49 -18.5q-51 2 -102.5 22.5t-93.5 51t-68.5 68.5t-26.5 75z" />
<glyph unicode="u" horiz-adv-x="1011" d="M174 119q0 57 3 94t13 80q18 78 54.5 176t83.5 193.5t105.5 178.5t123.5 130q18 0 43 -3t50.5 -11.5t49 -19.5t39.5 -30q-18 -20 -93 -137t-167 -336q-10 -23 -24.5 -65.5t-28.5 -90t-23.5 -92.5t-9.5 -71q0 -16 5 -24.5t10 -12.5q31 12 77.5 67.5t130.5 169.5 q20 29 48 66t57 79t54.5 87t41.5 90q8 25 21.5 58.5t33 70.5t45 75t60.5 70q27 0 57.5 -6t58 -15t48 -20.5t30.5 -23.5q-37 -90 -82 -178t-83.5 -173t-65.5 -169t-27 -164q0 -43 7.5 -75t15.5 -53.5t15 -35.5t7 -25q0 -2 -4 -6q-2 -2 -4 -2q-14 0 -36.5 6t-50 17.5t-55 26 t-52.5 30.5q-39 33 -52.5 82t-13.5 84q0 43 10 74q-8 0 -36.5 -33t-62.5 -78t-66.5 -88t-49.5 -63q-27 -29 -50 -45.5t-38 -18.5q-33 2 -68.5 13.5t-67.5 32t-55.5 49t-31.5 65.5z" />
<glyph unicode="v" horiz-adv-x="917" d="M244 27q0 25 11 56.5t25.5 81.5t25.5 126t11 192q0 68 -3 136.5t-3 105.5t5.5 69.5t21.5 56t45 37t76 13.5q29 0 64.5 -6t51.5 -23q-8 -35 -13 -61.5t-8 -58t-5 -75.5t-4 -114q-4 -139 -13.5 -248.5t-42.5 -218.5q0 -8 7 -8q31 23 69.5 66t81.5 97t86 115.5t80 120.5 q49 86 108.5 215t98.5 277q12 0 31.5 -5t39 -12.5t35 -15.5t21.5 -14q-4 -88 -42 -180.5t-91 -178.5t-112.5 -161.5t-108.5 -130.5q-98 -115 -197.5 -205t-237.5 -174q-53 20 -83.5 54t-30.5 71z" />
<glyph unicode="w" horiz-adv-x="1300" d="M217 84q0 41 9.5 114.5t24.5 159.5t34.5 176.5t40.5 161.5q27 96 83 148.5t140 52.5q45 0 89 -14.5t52 -36.5q-59 -49 -95 -122t-57.5 -156t-32.5 -170t-24 -162q68 90 128.5 162.5t107.5 115.5q63 59 85.5 99t39.5 87q12 37 29.5 86.5t58.5 90.5q8 2 35 2 q20 0 43.5 -2.5t44 -8.5t35 -14t16.5 -20q-33 -43 -61.5 -134.5t-51 -200t-41 -216t-32.5 -181.5q8 4 36.5 33t64.5 72t76 94t70 100q39 59 64.5 111.5t45 112t36 132t35.5 173.5q12 16 54 27.5t77 11.5q31 0 45 -11q-10 -115 -38 -204.5t-75 -174.5t-116.5 -170 t-164.5 -186q-39 -41 -85 -90t-90 -91t-81.5 -70.5t-58.5 -28.5q-47 0 -77.5 36.5t-30.5 94.5q0 59 5 103t17 93q12 45 19.5 76t12.5 53.5t7 39t4 32.5q-16 -8 -43 -33.5t-55.5 -59.5t-57 -69t-47.5 -59q-39 -53 -67.5 -94t-54 -78t-50 -75t-57.5 -81q-66 20 -93.5 61.5 t-27.5 100.5z" />
<glyph unicode="x" horiz-adv-x="872" d="M57 -16q41 23 97.5 59.5t115 80.5t112.5 92t93 93q-35 82 -64.5 169t-51 168t-34 147.5t-12.5 107.5q0 29 7.5 38t33.5 9q20 0 50 -4t61 -10t61.5 -13.5t53.5 -15.5q-4 -23 -4.5 -39t-0.5 -47q0 -80 13.5 -163t44.5 -179q84 96 155.5 214t145.5 282q51 -10 88 -29.5 t47 -42.5q-23 -94 -127 -237.5t-266 -305.5q29 -78 70 -165t90 -181q-23 -35 -71 -56.5t-91 -25.5q-35 41 -78 112t-82 165q-104 -94 -208.5 -171t-194.5 -130q-23 4 -37.5 24.5t-16.5 53.5z" />
<glyph unicode="y" horiz-adv-x="1001" d="M-193 -598q0 25 29 43q25 -23 41.5 -35t31.5 -20t32.5 -10.5t40.5 -2.5q117 0 228.5 69t210.5 195t181 305t139 400q-27 -41 -65.5 -100.5t-85.5 -117.5t-97.5 -105.5t-97.5 -63.5q-33 2 -68.5 13.5t-67.5 32t-56.5 49t-32.5 65.5q0 59 4 95t14 79q18 78 54.5 176 t84.5 193.5t106.5 178.5t121.5 130q16 0 41 -3t51.5 -11.5t51 -19.5t42.5 -30q-23 -20 -98.5 -137t-167.5 -336q-10 -23 -24.5 -65.5t-27.5 -90t-23.5 -92.5t-10.5 -71q0 -16 5 -24.5t9 -12.5q37 6 98.5 60.5t139.5 168.5q49 74 90 146.5t81 146.5t83 151.5t92 159.5 q27 0 57.5 -6t59.5 -15t50.5 -20.5t31.5 -23.5q-63 -135 -118.5 -264.5t-98.5 -264.5q-47 -150 -94.5 -272.5t-100.5 -226t-114.5 -190.5t-135.5 -165q-94 -98 -194.5 -150t-200.5 -52q-51 0 -101.5 11t-94.5 30.5t-77.5 45t-48.5 54.5z" />
<glyph unicode="z" horiz-adv-x="966" d="M125 29q0 33 57.5 105.5t152.5 165.5t219 196.5t257 199.5q-86 18 -136 26.5t-81 8.5q-59 0 -106.5 -16.5t-92.5 -52.5q-94 82 -94 188q0 33 2 39q35 35 83 53.5t101 18.5q57 0 117 -18.5t117 -40t107.5 -40t89.5 -18.5q23 0 50 6t46 16q18 -14 33.5 -57t15.5 -84 q-63 -25 -152.5 -86t-181.5 -141t-179 -170t-144 -170q43 -18 116 -19q47 0 96.5 8.5t95.5 22.5t85 33.5t65 42.5q96 -61 97 -180q0 -16 -1.5 -26.5t-3.5 -25.5q-94 -59 -204 -59q-55 0 -110.5 11t-108 23.5t-98.5 24t-85 11.5q-98 0 -160 -93q-27 10 -44 37t-21 60z" />
<glyph unicode="{" horiz-adv-x="686" d="M248 721l71 33q88 39 133.5 105.5t71 148.5t44 175t55.5 187q25 63 55.5 116.5t67 92.5t80 61.5t92.5 22.5q35 0 65.5 -16.5t77.5 -65.5q-63 -31 -104.5 -75t-68 -97t-44 -114.5t-31.5 -127.5q-16 -68 -35.5 -136t-54.5 -129.5t-88 -110t-137 -76.5q72 -43 112.5 -107.5 t40.5 -152.5q0 -80 -30.5 -168t-66.5 -172t-66.5 -156t-30.5 -121q0 -59 48 -89t130 -48l-17 -33q-51 8 -111.5 23.5t-111.5 44t-86 73t-35 107.5q0 61 30 136t64.5 155t64.5 161t30 152q0 94 -52.5 127t-131.5 33q-14 8 -21.5 19.5t-9.5 21.5z" />
<glyph unicode="|" horiz-adv-x="565" d="M201 -180q2 123 30.5 289.5t73.5 351t103.5 374t121 356.5t126 301t118.5 208q25 -4 60.5 -20.5t70.5 -36t62.5 -40t36.5 -32.5q-86 -94 -162 -231.5t-140.5 -298t-118 -336t-95.5 -348.5t-71.5 -332.5t-47.5 -290.5z" />
<glyph unicode="}" horiz-adv-x="686" d="M57 -250q63 31 104.5 75t68 97t43 114.5t32.5 127.5q16 68 35.5 136.5t54.5 130t88.5 109.5t137.5 76q-72 43 -113 107.5t-41 153.5q0 80 30.5 168t66.5 171.5t67 155.5t31 121q0 59 -48.5 89t-130.5 48l17 33q51 -8 111.5 -23.5t111.5 -44t86 -72.5t35 -108 q0 -61 -30 -136t-64.5 -155t-64.5 -160.5t-30 -152.5q0 -94 52.5 -127t132.5 -33q14 -8 21 -19t9 -22l-71 -32q-88 -41 -133 -106.5t-71 -147.5t-44.5 -175.5t-54.5 -187.5q-47 -127 -123 -210t-172 -83q-35 0 -66 16.5t-78 65.5z" />
<glyph unicode="~" horiz-adv-x="903" d="M283 551q47 29 91 37t91 8q59 0 116.5 -9t112.5 -9q51 0 100.5 7t86.5 29q29 -29 48 -74.5t27 -86.5q-41 -33 -85 -46.5t-91 -13.5q-59 0 -102 12.5t-86 28t-93 27.5t-126 12h-33.5t-38.5 -2q-10 14 -12 34.5t-6 45.5z" />
<glyph unicode="&#xa1;" horiz-adv-x="561" d="M-178 -512q104 86 206.5 214t189.5 283.5t152.5 333t98.5 361.5q25 -6 48.5 -15.5t39.5 -26.5t26.5 -45t10.5 -73q0 -55 -29.5 -160.5t-77 -233.5t-106.5 -264t-119.5 -255t-117 -206t-95.5 -116q-33 6 -70.5 29.5t-70.5 53.5t-57.5 62.5t-28.5 57.5zM492 854 q0 25 6 63.5t18 74.5t30.5 61.5t41.5 25.5q57 0 115.5 -40t87.5 -89q-25 -27 -43.5 -60.5t-37 -63t-41 -50t-53.5 -20.5q-25 0 -47 11t-39.5 26.5t-27.5 33t-10 27.5z" />
<glyph unicode="&#xa2;" horiz-adv-x="1034" d="M319 637q0 109 42 213t121 188t192.5 139.5t259.5 67.5q39 162 59 287q43 -12 77 -33.5t65 -60.5q-16 -53 -30.5 -100.5t-31.5 -94.5q84 -16 140.5 -67.5t56.5 -133.5q0 -47 -13.5 -91t-35 -78.5t-50 -56t-57.5 -21.5q-23 0 -48.5 15t-43.5 40q137 125 137 227 q0 41 -33.5 58.5t-81.5 17.5q-43 -139 -80.5 -255t-71.5 -214t-65.5 -183t-62.5 -159q61 23 140 65t153 97q8 -6 14 -18.5t6 -22.5q-29 -37 -74 -73t-96 -66.5t-101 -55t-91 -39.5q-35 -78 -74 -151.5t-84 -149.5q-31 6 -37 31q23 45 51.5 110.5t59.5 151.5 q-78 12 -135.5 50t-97.5 93.5t-59.5 125t-19.5 147.5zM547 526q0 -152 125 -190q61 176 122.5 383t110.5 405q-88 -35 -155.5 -102.5t-112.5 -150.5t-67.5 -173t-22.5 -172z" />
<glyph unicode="&#xa3;" horiz-adv-x="1327" d="M129 80q96 33 167 83t123 115.5t89 143.5t67 168q-16 -2 -32.5 -3t-32.5 -1q-82 0 -116 30.5t-34 90.5q0 33 9 59q23 -4 39 -6t32.5 -3t36 -2t49.5 -1h50.5t50.5 2l26 100q41 154 88 270.5t113 198.5t158 127t221 55q106 -41 161.5 -97t55.5 -140q0 -61 -32 -133 t-95 -168q-33 10 -65.5 42.5t-47.5 73.5q84 57 117 108.5t33 102.5q0 35 -17.5 68t-76.5 59q-80 -12 -137.5 -73.5t-101.5 -151.5t-80 -200.5t-73 -223.5q76 8 129.5 14.5t75.5 6.5q41 0 71 -34t46 -126q-51 6 -84 8t-63 2q-59 0 -115.5 -5t-110.5 -13q-57 -150 -109 -240 t-96.5 -139t-80 -69.5t-60.5 -28.5q82 0 180.5 -18.5t198.5 -18.5q92 0 182 27.5t174 101.5q23 -35 39.5 -86.5t16.5 -106.5q0 -33 -6 -59q-92 -59 -175 -83t-163 -24q-84 0 -163 19.5t-154 42t-146.5 42t-145.5 19.5q-39 0 -69.5 -10t-44.5 -45q-23 0 -45.5 40t-26.5 89z " />
<glyph unicode="&#xa4;" horiz-adv-x="1267" d="M332 229q35 16 95 54.5t120 85.5q-25 35 -40 84t-15 112q0 92 37.5 198.5t103.5 201.5q-41 74 -78 148.5t-72 152.5q25 47 97 47q8 0 16 -1t18 -3q16 -104 88 -258q59 66 131 106.5t146 40.5q72 0 127 -38t88 -103q37 55 63.5 106t38.5 92q94 0 123 -65 q-47 -66 -95 -131.5t-97 -130.5q2 -6 2 -13.5v-13.5q0 -131 -50.5 -243.5t-127.5 -198.5q63 -90 111 -141.5t102 -86.5q-6 -25 -21.5 -41t-38.5 -18q-29 25 -54.5 47.5t-50 49t-51 58t-57.5 72.5q-68 -59 -139.5 -93t-132.5 -34q-63 0 -117 39q-59 -45 -120.5 -87 t-100.5 -64q-23 4 -35 23.5t-14 45.5zM666 473q0 -72 23.5 -103.5t53.5 -31.5q39 0 83 30.5t85 81t79 115t66.5 131t45 129t16.5 111.5q0 106 -84 106q-78 0 -144.5 -53t-116.5 -136t-78.5 -183.5t-28.5 -196.5z" />
<glyph unicode="&#xa5;" horiz-adv-x="1394" d="M467 299q0 33 8 59q35 -4 65.5 -8t80.5 -4q47 0 90 1t84 3q16 45 28.5 89t26.5 85q-37 -4 -75 -8t-75 -4q-72 0 -103.5 34t-31.5 87q0 33 8 59q35 -4 66 -8t80 -4h58.5t58.5 2q-47 141 -90.5 265t-83 223.5t-77.5 173t-73 112.5q20 8 62 16.5t92.5 16.5t102.5 13t93 7 q0 -51 9.5 -124.5t24.5 -157.5t35.5 -170t41 -158t40 -124t34.5 -68q154 168 275.5 356t225.5 424q53 -6 102.5 -28.5t78.5 -51.5q-94 -113 -172 -207t-146 -178t-125 -161t-110 -150q39 4 66.5 7t45.5 3q39 0 68.5 -37t44.5 -123q-51 6 -84 8t-57 2q-47 0 -91.5 -3 t-85.5 -7q-14 -47 -26.5 -95t-24.5 -95q55 6 95 11t63 5q39 0 68.5 -37t44.5 -123q-51 6 -84 8.5t-58 2.5q-45 0 -85 -3.5t-79 -7.5q-25 -115 -39 -212t-14 -165q-23 0 -72 9.5t-100 22t-93 24.5t-50 20q29 49 56.5 117t55.5 145q-35 -4 -69.5 -7t-69.5 -3q-72 0 -103.5 34 t-31.5 87z" />
<glyph unicode="&#xa6;" horiz-adv-x="548" d="M203 -186q0 53 4 126.5t11 156.5t16.5 170t21.5 166t27.5 144.5t33.5 106.5q20 0 54.5 -10t71 -25.5t70.5 -34t54 -34.5q-96 -233 -143 -437t-57 -409zM434 891q33 131 73 254t82 229.5t84 189.5t81 136q25 -4 63.5 -20.5t76.5 -36t68.5 -40t38.5 -32.5 q-59 -66 -114.5 -152t-105.5 -185t-94 -211t-83 -228z" />
<glyph unicode="&#xa7;" horiz-adv-x="849" d="M176 -184q0 35 18.5 69.5t53.5 63.5q-6 -23 -8 -39t-2 -31q0 -45 19 -61.5t48 -16.5q39 0 84 26t83 62.5t62.5 79.5t24.5 80q0 35 -24.5 57.5t-60.5 40t-79 35t-78.5 42t-60.5 60t-25 93.5q0 55 24 107.5t62.5 97.5t90 79t108.5 50q31 -8 72 -34t78 -61 q-31 -12 -66 -34.5t-62.5 -51t-46 -62.5t-18.5 -69q0 -55 44 -95t96.5 -78t96.5 -80t44 -103q0 -57 -41 -115.5t-105.5 -105.5t-142.5 -77t-152 -30q-76 0 -106.5 30t-30.5 71zM446 948q0 66 40 122t96.5 99t118 73t102.5 46q66 -4 126 -41t99 -90q-55 -8 -108.5 -31.5 t-95.5 -57.5t-68.5 -77t-26.5 -88q0 -49 28.5 -89t63.5 -78t63.5 -79t28.5 -92q0 -47 -26.5 -90t-70.5 -78t-100.5 -59.5t-113.5 -34.5q-10 10 -18.5 24.5t-8.5 32.5q18 14 47 36t54.5 49.5t45 60.5t19.5 74t-21.5 71.5t-54 56t-71.5 48t-72 50.5t-54.5 61.5t-21.5 80.5z " />
<glyph unicode="&#xa8;" horiz-adv-x="624" d="M41 1239q0 31 4 64.5t16.5 61.5t36 47.5t62.5 21.5q27 -4 73 -30t66 -61l-21 -33q-20 -32 -45.5 -72t-51 -76t-36.5 -44q-43 18 -68.5 51t-35.5 70zM309 1194q0 33 4 66.5t16.5 61.5t35 46t59.5 21q12 0 31.5 -8.5t40 -20.5t39 -28.5t30.5 -33.5q0 -2 -19.5 -34.5 t-46 -71.5t-53 -74t-38.5 -41q-41 16 -65 49t-34 68z" />
<glyph unicode="&#xa9;" horiz-adv-x="1366" d="M299 459q0 84 27.5 175t76 179t114 167t143 139.5t162.5 96t171 35.5q88 0 176 -37.5t159 -102t116 -153t45 -188.5q0 -49 -15.5 -105.5t-60.5 -121.5l-4 14q16 39 23.5 89t7.5 83q0 80 -34 152.5t-86 128t-114.5 88t-120.5 32.5q-57 0 -121.5 -32.5t-128 -86t-122 -124 t-102.5 -146t-69.5 -151.5t-25.5 -139q0 -100 70.5 -164t220.5 -64q74 0 150.5 17.5t152.5 53.5t144.5 91t125.5 131l11 -8q-49 -88 -118 -165t-155 -133t-186.5 -89t-212.5 -33q-104 0 -183 28.5t-131.5 79t-79 118t-26.5 145.5zM725 549q0 59 33 130t85 132t119.5 103 t135.5 42q74 0 110.5 -45t36.5 -100q0 -53 -37 -98t-121 -47q4 6 18.5 22.5t30 35.5t28 39.5t12.5 37.5q0 16 -9.5 26.5t-38.5 14.5q-45 -10 -92 -45t-85 -81t-61.5 -94.5t-23.5 -80.5q0 -57 62 -58q25 0 49 9.5t49 20.5t48.5 21.5t43.5 12.5q12 0 17 -19q-2 -6 -30 -24.5 t-66 -40t-81 -41t-75 -23.5q-80 10 -119 49t-39 101z" />
<glyph unicode="&#xaa;" horiz-adv-x="759" d="M416 1010q0 70 35.5 148.5t92 146t123 111.5t128.5 48q14 -4 33.5 -15t36 -25.5t27.5 -31t13 -28.5q-61 -8 -124.5 -50t-116 -100.5t-85 -126t-32.5 -124.5q0 -27 20 -31q43 8 105.5 62.5t144.5 170.5q33 47 73 110t71 122q14 0 33.5 -5.5t37 -11.5t27.5 -14t10 -14 q-59 -106 -96 -210t-37 -169q0 -74 39 -92q-16 -10 -45 -16.5t-51 -6.5q-80 0 -80 94q0 74 55 197q-33 -57 -73 -108.5t-82 -91.5t-84 -64.5t-78 -28.5q-53 2 -87 45t-34 109z" />
<glyph unicode="&#xab;" horiz-adv-x="2199" d="M236 569q20 23 61 40.5t91 31.5t105.5 26.5t104.5 26.5q76 20 138.5 45t127 57.5t137 74.5t166.5 102q29 -12 56.5 -37t50 -52.5t36 -56t13.5 -49.5q0 -37 -20.5 -69.5t-42.5 -59.5q-14 27 -46 27q-23 0 -52 -6t-50 -11q-66 -16 -158 -44.5t-187 -60.5t-179 -61.5 t-135 -43.5q8 -16 21 -31t34.5 -31t56.5 -36.5t88 -49.5q23 -12 59 -27.5t75.5 -31t79.5 -28.5t71 -24q12 -4 40 -11t38 -11q-2 -18 -19.5 -37t-33.5 -25q-147 33 -272.5 72t-248.5 111q-47 29 -87 62.5t-74 86.5q-16 25 -29.5 58.5t-15.5 72.5zM1280 569q20 23 61 40.5 t91.5 31.5t105.5 26.5t104 26.5q76 20 138.5 45t127 57.5t137.5 74.5t167 102q29 -12 56.5 -37t50 -52.5t35.5 -56t13 -49.5q0 -37 -20 -69.5t-43 -59.5q-14 27 -45 27q-23 0 -52.5 -6t-49.5 -11q-66 -16 -158 -44.5t-187.5 -60.5t-179.5 -61.5t-135 -43.5q8 -16 21.5 -31 t35 -31t56.5 -36.5t88 -49.5q23 -12 58.5 -27.5t75.5 -31t80 -28.5t70 -24q12 -4 40 -11t38 -11q-2 -18 -19.5 -37t-33.5 -25q-147 33 -272 72t-248 111q-47 29 -87 62.5t-75 86.5q-16 25 -29.5 58.5t-15.5 72.5z" />
<glyph unicode="&#xac;" horiz-adv-x="1232" d="M303 692q0 10 4 30.5t8 31.5q35 -6 66 -7.5t80 -1.5q158 0 271.5 5.5t198.5 14.5t148.5 21.5t120.5 26.5q-6 -51 -8 -83.5t-2 -57.5q0 -35 6 -78t13.5 -89t13.5 -94.5t6 -91.5q0 -70 -23.5 -115.5t-93.5 -45.5q-10 0 -30.5 4t-30.5 8q14 72 14 160q0 72 -9 144.5 t-24 139.5q-88 0 -171 -9t-157.5 -21.5t-138 -21.5t-114.5 -9q-70 0 -109 28.5t-39 110.5z" />
<glyph unicode="&#xad;" horiz-adv-x="1077" d="M279 516q0 10 4 30.5t8 31.5q35 -6 65.5 -7.5t79.5 -1.5q104 0 195.5 6.5t165 14.5t127 14t82.5 6q39 0 68.5 -47t43.5 -135q-51 6 -84 8t-57 2q-88 0 -164 -9t-143.5 -19.5t-129 -19.5t-122.5 -9q-63 0 -101 36t-38 99z" />
<glyph unicode="&#xae;" horiz-adv-x="1363" d="M299 459q0 84 27.5 175t76 179t114 167t143 139.5t162.5 96t171 35.5q88 0 176 -37.5t159 -102t116 -153t45 -188.5q0 -49 -15.5 -105.5t-62.5 -121.5l-4 14q18 39 25.5 89t7.5 83q0 80 -34 152.5t-86 128t-114.5 88t-120.5 32.5q-57 0 -122.5 -32.5t-129 -86t-121 -124 t-101.5 -146t-70.5 -151.5t-26.5 -139q0 -100 71.5 -164t221.5 -64q74 0 150.5 17.5t152.5 53.5t144.5 91t125.5 131l11 -8q-49 -88 -119 -165t-156 -133t-186.5 -89t-212.5 -33q-104 0 -183 28.5t-131.5 79t-78 118t-25.5 145.5zM657 463q49 39 94.5 89t86.5 102.5 t78.5 102.5t68.5 91q-35 -4 -63.5 -16.5t-49.5 -32.5q-23 8 -43 31.5t-24 52.5q37 31 89 46t110 15q86 0 160.5 -37t101.5 -114q-4 -59 -35 -97.5t-75 -61t-94 -30.5t-91 -8q29 -33 68.5 -53.5t84.5 -20.5q23 0 45.5 6.5t44.5 22.5q0 -51 -30.5 -87t-93.5 -36 q-45 0 -70 17.5t-43.5 40t-38.5 46t-57 35.5q-37 -33 -67 -73.5t-40 -94.5q-35 0 -64.5 12.5t-52.5 51.5zM954 647q2 -2 11 -2q25 0 59.5 3t69 13.5t65.5 33t47 61.5q-4 23 -26.5 45t-57.5 39q-23 -20 -48 -46t-49 -52.5t-42.5 -51.5t-28.5 -43z" />
<glyph unicode="&#xaf;" horiz-adv-x="708" d="M41 1151q2 20 3 49t1 86q92 -6 186 -6q217 0 400 41q14 -27 25.5 -81t11.5 -97q-152 -18 -316 -19q-190 0 -311 27z" />
<glyph unicode="&#xb0;" horiz-adv-x="786" d="M432 1051q0 84 31 164.5t82 143t115.5 101.5t132.5 39q59 0 113.5 -24.5t96 -66.5t66.5 -96.5t25 -113.5q0 -74 -35 -141.5t-93.5 -118.5t-135 -82t-160.5 -31q-115 0 -176.5 58.5t-61.5 167.5zM563 1065q0 -137 127 -137q55 0 106.5 23.5t90.5 63.5t62.5 93.5 t23.5 110.5q0 74 -43 119.5t-115 45.5q-49 0 -94 -26.5t-81 -70.5t-56.5 -101.5t-20.5 -120.5z" />
<glyph unicode="&#xb1;" horiz-adv-x="1263" d="M258 229q0 10 5 32t9 32q39 -6 75 -8t93 -2q121 0 227.5 6t192.5 14t147.5 14.5t94.5 6.5q45 0 80 -47.5t51 -135.5q-59 6 -97 8.5t-67 2.5q-102 0 -190 -9.5t-166 -19.5t-149.5 -19.5t-143.5 -9.5q-74 0 -118 36t-44 99zM340 762q0 10 5 31.5t9 31.5q39 -6 75 -8t93 -2 q53 0 105.5 1t101.5 3q47 117 95 207t96 143q25 -4 63.5 -20t76.5 -35.5t68.5 -40t38.5 -33.5q-43 -47 -81.5 -96t-75.5 -102q59 4 103 9t71 5q45 0 79.5 -47t51.5 -135q-59 6 -97 8t-67 2q-66 0 -126 -4t-116 -10q-35 -68 -69.5 -148t-69.5 -176q-41 6 -85 33t-85 63 q14 49 28.5 98.5t30.5 96.5q-41 -4 -79.5 -7t-77.5 -3q-74 0 -118 35.5t-44 99.5z" />
<glyph unicode="&#xb2;" horiz-adv-x="737" d="M375 881q8 25 26.5 45t49 42.5t73.5 49t103 61.5q121 72 195.5 131.5t74.5 116.5q0 33 -22.5 52.5t-59.5 19.5q-57 0 -103 -36t-46 -87q0 -33 47 -74q-31 -6 -42.5 -7t-17.5 -1q-61 0 -102 27.5t-41 68.5q0 33 26.5 62.5t69.5 52t97.5 36t109.5 13.5q104 0 165.5 -39.5 t61.5 -105.5q0 -39 -25.5 -76t-70.5 -75t-104.5 -78t-128.5 -83q-43 -29 -73 -50t-48 -44q82 6 163 32t142 66q16 -14 34.5 -42.5t18.5 -55.5q0 -45 -55 -57t-132 -13.5t-156 -3.5t-128 -26q-35 10 -63.5 30.5t-38.5 47.5z" />
<glyph unicode="&#xb3;" horiz-adv-x="700" d="M381 930q0 2 1 11t1 11q27 -4 56.5 -8t52.5 -4q53 0 115.5 9t115.5 25.5t88 42t35 58.5q0 39 -74 51q-35 -12 -66.5 -18t-50.5 -6q-33 0 -57.5 21.5t-24.5 68.5q51 0 106.5 7t103.5 24.5t80 47t34 75.5q-14 20 -55 20q-51 0 -118 -22.5t-114 -57.5q-72 29 -71 90 q0 13 4 21q20 10 52 19t66.5 15.5t70.5 9.5t63 3q104 0 147 -37t43 -78q0 -39 -35 -83t-96 -79q66 -10 92.5 -36.5t26.5 -71.5q0 -66 -48 -111t-122 -72.5t-160 -41t-162 -13.5q-49 8 -74.5 38t-25.5 71z" />
<glyph unicode="&#xb4;" horiz-adv-x="583" d="M41 1114q45 16 94 51t99.5 84t98.5 110.5t91 133.5q20 -12 41.5 -40t39 -61.5t28 -68.5t10.5 -63q-78 -53 -136.5 -88t-104.5 -56.5t-81 -31t-67 -9.5q-66 0 -113 39z" />
<glyph unicode="&#xb5;" horiz-adv-x="1062" d="M113 -293q0 27 15 112t43 203.5t69 257t92 270.5t111.5 243.5t129.5 177.5q18 0 45 -3t55.5 -11.5t54.5 -19.5t42 -30q-18 -20 -93 -137t-167 -336q-10 -23 -24.5 -65.5t-29 -90t-23.5 -92.5t-9 -71q0 -16 5 -24.5t9 -12.5q31 12 78 67.5t131 169.5q20 29 48 66t56.5 79 t54 87t42.5 90q8 25 21.5 58.5t33 70.5t45 75t60.5 70q27 0 57.5 -6t58 -15t48 -20.5t30.5 -23.5q-37 -90 -82 -178t-84 -173t-65.5 -169t-26.5 -164q0 -43 7 -75t15.5 -53.5t15.5 -35.5t7 -25q0 -2 -4 -6q-2 -2 -4 -2q-14 0 -36.5 6t-50.5 17.5t-55.5 26t-52.5 30.5 q-39 33 -52 82t-13 84q0 43 10 74q-8 0 -36.5 -34t-62.5 -78t-65.5 -88t-50.5 -62q-25 -29 -50.5 -45.5t-37.5 -18.5q-23 2 -50.5 14.5t-35.5 46.5q-35 -104 -52.5 -186t-17.5 -141q0 -72 26 -118t81 -60q-2 -10 -6 -23.5t-8 -23.5q-131 23 -191.5 76t-60.5 163z" />
<glyph unicode="&#xb6;" horiz-adv-x="1249" d="M362 813q0 109 40 202t108 169t158 134t191.5 100t205.5 65.5t203 29.5q55 0 101 -19t78 -52t49 -77t17 -95q0 -45 -10 -78t-41 -33q-4 49 -23.5 68.5t-68.5 19.5q-66 0 -151.5 -20.5t-177 -57t-179.5 -86t-156.5 -106.5t-110.5 -119.5t-42 -126.5q0 -49 27.5 -61.5 t54.5 -12.5q76 0 156.5 31t140.5 64q41 111 65.5 191.5t26.5 105.5q66 0 106.5 -13.5t65.5 -27.5q-49 -98 -99 -217t-97.5 -244t-88.5 -248t-71.5 -229.5t-48 -187.5t-17.5 -122q0 -16 2 -38.5t6 -28.5q-72 12 -120 36.5t-72 75.5q0 10 14 55.5t39 114t57.5 154.5t67.5 180 t70.5 190.5t68.5 184.5q-98 -66 -174 -100.5t-141 -34.5q-39 0 -79 13t-73.5 44t-55.5 82t-22 125zM918 63q0 45 20 122t53 169t73 194.5t78 200t68.5 185.5t44.5 151q55 0 100.5 -13t74.5 -25q-23 -68 -58 -157t-76 -186.5t-81.5 -200t-74.5 -195.5t-54.5 -173t-20.5 -133 q0 -45 12 -76q-29 0 -57.5 9.5t-51 27t-36.5 43t-14 57.5z" />
<glyph unicode="&#xb7;" horiz-adv-x="464" d="M281 459q0 20 6 53t15 65.5t17.5 62.5t12.5 44q18 0 50 -10t65.5 -27.5t62.5 -40t45 -47.5q-14 -35 -38.5 -65.5t-50.5 -53t-50.5 -36t-38.5 -13.5q-27 4 -57.5 24.5t-38.5 43.5z" />
<glyph unicode="&#xb8;" horiz-adv-x="522" d="M41 -309q8 23 30.5 63.5t54.5 88.5t71 99.5t77 92.5l52 -6q-51 -59 -99.5 -132t-68.5 -124q18 10 45.5 19t56.5 17.5t56.5 12.5t45.5 4q8 0 29 -13.5t40.5 -29.5t34.5 -32.5t15 -24.5q0 -14 -24.5 -45t-62.5 -68t-85 -78t-90 -73.5t-79 -54t-52 -21.5q-4 0 -11 9 t-14.5 21.5t-12.5 24.5t-5 18q47 39 82 72t63.5 63.5t53 65.5t51.5 78q-16 -4 -47 -11.5t-64.5 -18.5t-67.5 -22.5t-59 -19.5q-6 4 -10 11.5t-6 13.5z" />
<glyph unicode="&#xb9;" horiz-adv-x="638" d="M346 879q10 8 66.5 17t124.5 19q29 90 66.5 180.5t78.5 178.5q-29 -12 -57.5 -27.5t-51.5 -32.5q-37 8 -36 39q31 31 65.5 54.5t67 46t62.5 48t50 56.5q66 -12 117 -25.5t72 -35.5q-27 -12 -60.5 -58.5t-70.5 -112t-74 -143t-70 -153.5q14 0 28 1t24 1q47 0 72.5 -15.5 t25.5 -44.5q0 -4 -4 -17t-6 -24q-23 2 -46.5 4.5t-44.5 2.5q-66 0 -133 -10.5t-127 -10.5q-49 0 -87 16.5t-52 45.5z" />
<glyph unicode="&#xba;" horiz-adv-x="688" d="M422 1047q0 51 18.5 105t50 105.5t75.5 97.5t98 79q78 51 151 51q47 -18 92 -90q6 0 13.5 1t13.5 1q78 0 78 -119q0 -80 -31 -151.5t-84 -130t-128 -98.5t-163 -56q-84 6 -134 62.5t-50 142.5zM563 983q0 -31 11.5 -58.5t25.5 -31.5q66 12 122 47t97 87t63.5 118.5 t22.5 140.5q0 59 -20 86q-63 -16 -114.5 -53t-88.5 -78q-51 -59 -85 -133t-34 -125z" />
<glyph unicode="&#xbb;" horiz-adv-x="2136" d="M199 193q0 47 47 83.5t123 61.5q63 20 155 51t187.5 60.5t180.5 56t136 43.5q-10 16 -22.5 30.5t-34 31t-56 37t-88.5 48.5q-49 27 -109.5 50.5t-124 42t-128 29.5t-123.5 11q2 18 19.5 39t33.5 27q92 0 176 -15.5t163 -42t154 -59.5t150 -69q33 -18 68 -46t65.5 -63 t51 -78t22.5 -94q-20 -23 -61 -40t-91.5 -31.5t-105.5 -27t-104 -26.5q-76 -23 -138.5 -46.5t-127 -56t-137 -75.5t-167.5 -100q-59 47 -86.5 89t-27.5 79zM1182 193q0 47 47 83.5t123 61.5q63 20 155 51t187.5 60.5t180.5 56t136 43.5q-10 16 -22.5 30.5t-34 31t-56 37 t-88.5 48.5q-49 27 -109.5 50.5t-124 42t-128 29.5t-123.5 11q2 18 19.5 39t33.5 27q92 0 176 -15.5t163 -42t154 -59.5t150 -69q33 -18 68 -46t65.5 -63t51 -78t22.5 -94q-20 -23 -61 -40t-91.5 -31.5t-105.5 -27t-104 -26.5q-76 -23 -138.5 -46.5t-127 -56t-137 -75.5 t-167.5 -100q-59 47 -86.5 89t-27.5 79z" />
<glyph unicode="&#xbc;" horiz-adv-x="1611" d="M358 14q80 72 178.5 181.5t204 241.5t213 278.5t208 294t186.5 289t149 260.5q25 0 55.5 -9.5t60 -24t52.5 -32t29 -33.5q-102 -154 -216 -309.5t-229.5 -304t-229.5 -286.5t-218.5 -258t-195.5 -217t-161 -165q-23 4 -50 32t-36 62zM362 879q10 8 66.5 17t124.5 19 q29 90 66.5 180.5t78.5 178.5q-29 -12 -57.5 -27.5t-50.5 -32.5q-37 8 -37 39q31 31 65.5 54.5t67.5 46t62.5 48t50.5 56.5q66 -12 117 -25.5t71 -35.5q-27 -12 -60.5 -58.5t-70.5 -112t-74 -143t-69 -153.5q14 0 27.5 1t23.5 1q47 0 72.5 -15.5t25.5 -44.5q0 -4 -4 -17 t-6 -24q-23 2 -46.5 4.5t-43.5 2.5q-66 0 -133.5 -10.5t-126.5 -10.5q-49 0 -87 16.5t-53 45.5zM950 182q92 72 171 161t139 181q45 -10 91 -25.5t89 -43.5q-39 -31 -81 -67t-83 -70.5t-77 -66.5t-60 -56q25 -4 48 -6.5t46 -2.5h40.5t43.5 2q53 78 106.5 156t110.5 156 q51 -4 93 -18.5t67 -43.5q-113 -113 -199 -231q16 4 31 4q20 -14 26 -37l-96 -27q-72 -111 -117 -243q-45 2 -86 8t-71 33q37 88 88 170q-59 0 -101.5 2t-78 10t-68.5 20.5t-72 34.5z" />
<glyph unicode="&#xbd;" horiz-adv-x="1658" d="M358 14q80 72 178.5 181.5t204 241.5t213 278.5t208 294t186.5 289t149 260.5q25 0 55.5 -9.5t60 -24t52.5 -32t29 -33.5q-102 -154 -216 -309.5t-229.5 -304t-229.5 -286.5t-218.5 -258t-195.5 -217t-161 -165q-23 4 -50 32t-36 62zM362 879q10 8 66.5 17t124.5 19 q29 90 66.5 180.5t78.5 178.5q-29 -12 -57.5 -27.5t-50.5 -32.5q-37 8 -37 39q31 31 65.5 54.5t67.5 46t62.5 48t50.5 56.5q66 -12 117 -25.5t71 -35.5q-27 -12 -60.5 -58.5t-70.5 -112t-74 -143t-69 -153.5q14 0 27.5 1t23.5 1q47 0 72.5 -15.5t25.5 -44.5q0 -4 -4 -17 t-6 -24q-23 2 -46.5 4.5t-43.5 2.5q-66 0 -133.5 -10.5t-126.5 -10.5q-49 0 -87 16.5t-53 45.5zM1014 -41q8 25 26.5 45.5t49 43t73.5 49t103 61.5q121 72 195.5 131t74.5 117q0 33 -22.5 52t-59.5 19q-57 0 -103 -35.5t-46 -87.5q0 -33 47 -73q-31 -6 -42.5 -7.5 t-17.5 -1.5q-61 0 -102 28t-41 69q0 33 26.5 62.5t69.5 52t97.5 35.5t109.5 13q104 0 165.5 -39.5t61.5 -105.5q0 -39 -25.5 -76t-70.5 -74.5t-104.5 -77.5t-128.5 -83q-43 -29 -73 -50.5t-48 -43.5q82 6 163 31.5t142 66.5q16 -14 34.5 -43t18.5 -55q0 -45 -55 -57.5 t-132 -13.5t-156 -3t-128 -27q-35 10 -63.5 30.5t-38.5 47.5z" />
<glyph unicode="&#xbe;" horiz-adv-x="1632" d="M379 14q80 72 178 181.5t203.5 241.5t213 278.5t208 294t186.5 289t150 260.5q25 0 55.5 -9.5t60 -24t52 -32t28.5 -33.5q-104 -154 -217 -309.5t-228.5 -304t-229 -286.5t-218 -258t-195.5 -217t-161 -165q-23 4 -50.5 32t-35.5 62zM389 930q0 2 1 11t1 11 q27 -4 56.5 -8t52.5 -4q53 0 115.5 9t115.5 25.5t88 42t35 58.5q0 39 -74 51q-35 -12 -66.5 -18t-49.5 -6q-33 0 -57.5 21.5t-24.5 68.5q51 0 106 7t103.5 24.5t80 47t33.5 75.5q-14 20 -55 20q-51 0 -117.5 -22.5t-114.5 -57.5q-72 29 -71 90q0 13 4 21q20 10 52 19 t67 15.5t70.5 9.5t62.5 3q104 0 147 -37t43 -78q0 -39 -34.5 -83t-96.5 -79q66 -10 92.5 -36.5t26.5 -71.5q0 -66 -48 -111t-122 -72.5t-160 -41t-162 -13.5q-49 8 -74.5 38t-25.5 71zM971 182q92 72 171 161t138 181q45 -10 91 -25.5t89 -43.5q-39 -31 -81 -67t-83 -70.5 t-76.5 -66.5t-60.5 -56q25 -4 48.5 -6.5t45.5 -2.5h41t43 2q53 78 106.5 156t110.5 156q51 -4 93.5 -18.5t66.5 -43.5q-113 -113 -198 -231q16 4 30 4q20 -14 27 -37l-96 -27q-72 -111 -117 -243q-45 2 -86 8t-72 33q37 88 88 170q-59 0 -101 2t-78 10t-68.5 20.5 t-71.5 34.5z" />
<glyph unicode="&#xbf;" horiz-adv-x="966" d="M-6 -346q0 78 27.5 145.5t81 137t131 144.5t176.5 169q96 90 145 183t49 169q0 10 -1 20.5t-3 22.5q35 -2 74 -16.5t74.5 -38t63.5 -51t40 -56.5q0 -47 -22.5 -113.5t-68.5 -139t-119 -146.5t-173 -133q-162 -96 -242 -186.5t-80 -161.5q0 -33 13.5 -64t34 -55.5 t47 -39.5t55.5 -15q31 0 68.5 30.5t70.5 75.5t55.5 98.5t22.5 96.5q0 27 -6 37q16 4 26.5 4h20.5q39 0 80 -8.5t74.5 -20.5t57.5 -29.5t30 -36.5q-16 -68 -58.5 -139.5t-97.5 -131.5t-116.5 -101t-116.5 -47q-80 6 -155 40.5t-132.5 88t-92 123t-34.5 145.5zM723 854 q0 25 6 63.5t18.5 74.5t31 61.5t40.5 25.5q57 0 115.5 -40t87.5 -89q-25 -27 -43 -60.5t-36.5 -63t-41 -50t-53.5 -20.5q-25 0 -47.5 11t-40 26.5t-27.5 33t-10 27.5z" />
<glyph unicode="&#xc0;" d="M125 -27q0 33 18.5 92.5t54 140.5t86 179t113.5 211q-53 2 -95 3t-69 1q12 31 69.5 53.5t152.5 38.5q80 133 171 254t183 222.5t184 178t176 121.5l3.5 24.5t1.5 14.5q29 0 76.5 -14t94 -34.5t82 -42t39.5 -36.5q-68 -119 -133 -355.5t-108 -565.5q-10 -82 -17.5 -186.5 t-7.5 -233.5v-92t4 -99q-4 -2 -8 -2h-16q-29 0 -67 9.5t-73.5 22.5t-61.5 29.5t-32 29.5q-2 27 -2 52v54q0 127 9.5 258t31.5 270q-29 2 -76 5.5t-105.5 5.5t-125 5t-129.5 5q-49 -92 -92 -183.5t-74 -183.5q-35 -98 -56.5 -196.5t-27.5 -184.5q-98 29 -136 57.5t-38 71.5z M621 713q172 14 391 18q16 86 35.5 171t42.5 173q8 29 19 79t21 106q-51 -18 -113.5 -67.5t-129 -122.5t-135 -164t-131.5 -193zM1059 1677q0 18 10 39t27.5 39.5t38 32.5t43.5 20q86 -76 188 -130t195 -74q-47 -39 -113 -39q-33 0 -67.5 5t-81 18.5t-104.5 35t-136 53.5z " />
<glyph unicode="&#xc1;" d="M125 -27q0 33 18.5 92.5t54 140.5t86 179t113.5 211q-53 2 -95 3t-69 1q12 31 69.5 53.5t152.5 38.5q80 133 171 254t183 222.5t184 178t176 121.5l3.5 24.5t1.5 14.5q29 0 76.5 -14t94 -34.5t82 -42t39.5 -36.5q-68 -119 -133 -355.5t-108 -565.5q-10 -82 -17.5 -186.5 t-7.5 -233.5v-92t4 -99q-4 -2 -8 -2h-16q-29 0 -67 9.5t-73.5 22.5t-61.5 29.5t-32 29.5q-2 27 -2 52v54q0 127 9.5 258t31.5 270q-29 2 -76 5.5t-105.5 5.5t-125 5t-129.5 5q-49 -92 -92 -183.5t-74 -183.5q-35 -98 -56.5 -196.5t-27.5 -184.5q-98 29 -136 57.5t-38 71.5z M621 713q172 14 391 18q16 86 35.5 171t42.5 173q8 29 19 79t21 106q-51 -18 -113.5 -67.5t-129 -122.5t-135 -164t-131.5 -193zM1163 1604q92 20 194.5 74t188.5 130q43 -12 81 -53t38 -78q-78 -33 -136.5 -54t-104.5 -34.5t-80.5 -18.5t-67.5 -5q-66 0 -113 39z" />
<glyph unicode="&#xc2;" d="M125 -27q0 33 18.5 92.5t54 140.5t86 179t113.5 211q-53 2 -95 3t-69 1q12 31 69.5 53.5t152.5 38.5q80 133 171 254t183 222.5t184 178t176 121.5l3.5 24.5t1.5 14.5q29 0 76.5 -14t94 -34.5t82 -42t39.5 -36.5q-68 -119 -133 -355.5t-108 -565.5q-10 -82 -17.5 -186.5 t-7.5 -233.5v-92t4 -99q-4 -2 -8 -2h-16q-29 0 -67 9.5t-73.5 22.5t-61.5 29.5t-32 29.5q-2 27 -2 52v54q0 127 9.5 258t31.5 270q-29 2 -76 5.5t-105.5 5.5t-125 5t-129.5 5q-49 -92 -92 -183.5t-74 -183.5q-35 -98 -56.5 -196.5t-27.5 -184.5q-98 29 -136 57.5t-38 71.5z M621 713q172 14 391 18q16 86 35.5 171t42.5 173q8 29 19 79t21 106q-51 -18 -113.5 -67.5t-129 -122.5t-135 -164t-131.5 -193zM1018 1610q156 39 280 145q-4 8 -8 25q41 29 125 28h36.5t21.5 -2q14 -115 36.5 -174t69.5 -88q-4 -2 -18 -2q-51 0 -105.5 32t-97.5 83 q-55 -41 -118.5 -66.5t-111.5 -25.5q-31 0 -58.5 9t-51.5 36z" />
<glyph unicode="&#xc3;" d="M125 -27q0 33 18.5 92.5t54 140.5t86 179t113.5 211q-53 2 -95 3t-69 1q12 31 69.5 53.5t152.5 38.5q80 133 171 254t183 222.5t184 178t176 121.5l3.5 24.5t1.5 14.5q29 0 76.5 -14t94 -34.5t82 -42t39.5 -36.5q-68 -119 -133 -355.5t-108 -565.5q-10 -82 -17.5 -186.5 t-7.5 -233.5v-92t4 -99q-4 -2 -8 -2h-16q-29 0 -67 9.5t-73.5 22.5t-61.5 29.5t-32 29.5q-2 27 -2 52v54q0 127 9.5 258t31.5 270q-29 2 -76 5.5t-105.5 5.5t-125 5t-129.5 5q-49 -92 -92 -183.5t-74 -183.5q-35 -98 -56.5 -196.5t-27.5 -184.5q-98 29 -136 57.5t-38 71.5z M621 713q172 14 391 18q16 86 35.5 171t42.5 173q8 29 19 79t21 106q-51 -18 -113.5 -67.5t-129 -122.5t-135 -164t-131.5 -193zM991 1747q96 -33 189 -33q78 0 161.5 22.5t188.5 71.5q25 -25 43 -76t26 -87q-92 -43 -169.5 -54.5t-145.5 -11.5q-127 0 -203 48t-90 120z" />
<glyph unicode="&#xc4;" d="M125 -27q0 33 18.5 92.5t54 140.5t86 179t113.5 211q-53 2 -95 3t-69 1q12 31 69.5 53.5t152.5 38.5q80 133 171 254t183 222.5t184 178t176 121.5l3.5 24.5t1.5 14.5q29 0 76.5 -14t94 -34.5t82 -42t39.5 -36.5q-68 -119 -133 -355.5t-108 -565.5q-10 -82 -17.5 -186.5 t-7.5 -233.5v-92t4 -99q-4 -2 -8 -2h-16q-29 0 -67 9.5t-73.5 22.5t-61.5 29.5t-32 29.5q-2 27 -2 52v54q0 127 9.5 258t31.5 270q-29 2 -76 5.5t-105.5 5.5t-125 5t-129.5 5q-49 -92 -92 -183.5t-74 -183.5q-35 -98 -56.5 -196.5t-27.5 -184.5q-98 29 -136 57.5t-38 71.5z M621 713q172 14 391 18q16 86 35.5 171t42.5 173q8 29 19 79t21 106q-51 -18 -113.5 -67.5t-129 -122.5t-135 -164t-131.5 -193zM1161 1614q0 31 4 64.5t16.5 61t36 47t62.5 21.5q27 -4 73 -29.5t66 -60.5l-17 -22q-18 -23 -41.5 -49.5t-45 -51t-29.5 -30.5q-51 10 -83 20.5 t-42 28.5zM1430 1614q0 33 4 66.5t16 61t34.5 46t59.5 20.5q12 0 31.5 -8t40 -20.5t39 -28.5t31.5 -33q0 -2 -17.5 -24.5t-40 -50t-45 -52t-35.5 -28.5q-47 6 -76.5 20.5t-41.5 30.5z" />
<glyph unicode="&#xc5;" horiz-adv-x="1318" d="M127 -27q0 33 18.5 92.5t54.5 140.5t86 179t113 211q-53 2 -95 3t-68 1q12 31 69 53.5t152 38.5q82 143 178 267t193.5 227.5t186.5 183.5t161 133q-31 23 -49.5 54.5t-18.5 66.5q0 41 20.5 75t53 58.5t72.5 37.5t79 13q43 0 80 -13t64.5 -34.5t44 -51.5t16.5 -62 q1 -39 -22 -78q-29 -45 -72 -75t-96 -38q47 -20 81.5 -40.5t38.5 -35.5q-68 -119 -133 -355.5t-108 -565.5q-10 -82 -17.5 -186.5t-7.5 -233.5v-92t4 -99q-4 -2 -8 -2h-16q-29 0 -67 9.5t-73.5 22.5t-61.5 29.5t-32 29.5q-2 27 -2 52v54q0 127 9.5 258t31.5 270 q-29 2 -76 5.5t-105 5.5t-125 5t-130 5q-49 -92 -92 -183.5t-74 -183.5q-35 -98 -56.5 -196.5t-27.5 -184.5q-98 29 -136 57.5t-38 71.5zM623 713q172 14 391 18q16 86 35.5 171t42.5 173q8 29 19 79t22 106q-51 -18 -114 -67.5t-129.5 -122.5t-135 -164t-131.5 -193z M1227 1597q0 -39 16.5 -66.5t52.5 -27.5q37 0 66 15.5t49.5 40t30.5 53t10 53.5q0 33 -20.5 57.5t-59.5 24.5q-23 0 -48.5 -12.5t-47 -32t-35.5 -47t-14 -58.5z" />
<glyph unicode="&#xc6;" horiz-adv-x="1871" d="M145 -27q0 27 21.5 90.5t60.5 152.5t93.5 195.5t121.5 219.5q-127 29 -170 96q125 6 240 18q88 137 187.5 268.5t205 234t213 164t209.5 61.5q55 0 113.5 -3.5t113.5 -3.5q86 0 170 7.5t152 14.5t114 14t58 7q47 0 84 -59t55 -160q-27 8 -76 16.5t-113.5 13.5t-140 8 t-155.5 3h-44.5t-43.5 -2l20 -29q-12 -18 -26.5 -41.5t-38 -71.5t-61.5 -128t-95 -211q47 2 92 5t86 3q109 0 169.5 -37t60.5 -102q0 -16 -4.5 -33.5t-12.5 -30.5q-41 4 -94 7.5t-125 3.5q-53 0 -118.5 -3.5t-137.5 -7.5q-49 -111 -89 -214t-68.5 -189t-45 -149.5 t-18.5 -94.5q166 35 335 59.5t355 36.5q23 -35 38 -75.5t15 -87.5v-26.5t-4 -29.5q-57 2 -120.5 3t-165.5 1q-68 0 -128.5 -3t-122 -9t-130 -16.5t-154.5 -24.5q-94 37 -182 180q35 74 97.5 224.5t156.5 400.5q-143 -10 -272.5 -18.5t-209.5 -8.5h-45q-47 -88 -89 -185 t-79 -202q-35 -98 -56 -196.5t-28 -184.5q-98 29 -136 57.5t-38 71.5zM655 758q147 16 273.5 31.5t236.5 29.5q31 82 53.5 143.5t39 116t30 109.5t27.5 123q-166 -25 -338 -169.5t-322 -383.5z" />
<glyph unicode="&#xc7;" horiz-adv-x="1239" d="M291 401q0 143 33.5 281.5t95 262.5t146.5 227.5t186.5 179t216 117.5t235.5 42q141 0 220 -59t79 -166q0 -41 -11 -84t-32.5 -85t-50.5 -81t-63 -67q-53 8 -92.5 48t-49.5 93q72 59 114 123.5t42 118.5q0 90 -113 90q-47 0 -97 -19.5t-101.5 -54.5t-99.5 -84t-89 -108 q-285 -410 -285 -838q0 -152 47.5 -244t125.5 -108q88 20 223 112t295 240q20 -20 24 -43q-59 -78 -122.5 -149.5t-126 -131t-123 -104.5t-111.5 -70q-29 -35 -48.5 -68.5t-29.5 -62.5q18 10 46 19.5t56.5 17.5t56 12t46.5 4q8 0 28.5 -13t40 -29.5t35 -33t15.5 -24.5 q0 -14 -24.5 -45t-62.5 -67.5t-85 -77.5t-90 -74t-79 -54.5t-53 -21.5q-4 0 -11 9.5t-14 21.5t-12.5 24.5t-5.5 18.5q47 39 82 71.5t64 63.5t53.5 65.5t50.5 77.5q-16 -4 -47 -11t-64.5 -18.5t-67.5 -22.5t-58 -19q-6 4 -10.5 11t-6.5 13q10 29 46 90.5t83 126.5 q-223 23 -336.5 162t-113.5 395z" />
<glyph unicode="&#xc8;" horiz-adv-x="1247" d="M221 14q35 74 97.5 224.5t158.5 402.5q-92 29 -121 102q10 10 59.5 25.5t121.5 32.5q31 80 52 139t37.5 111.5t30 102.5t25.5 110q-72 4 -113 39.5t-41 93.5q0 16 5.5 38.5t11.5 39.5q41 -6 79 -8.5t99 -2.5q129 0 241.5 7.5t204 15.5t157 15t99.5 7q47 0 84 -49t56 -139 q-63 6 -103.5 8t-70.5 2q-113 0 -206 -11t-179 -24q-12 -18 -27.5 -46.5t-40.5 -80t-60.5 -129t-86.5 -194.5q78 12 146.5 19t115.5 7q68 0 105.5 -36.5t37.5 -102.5q0 -16 -3 -33.5t-7 -29.5q-27 4 -59.5 7t-77.5 3q-88 0 -178.5 -15.5t-172.5 -25.5q-47 -109 -86 -210 t-66.5 -185t-43 -145.5t-17.5 -92.5q166 35 335 59.5t356 36.5q23 -35 38 -75.5t15 -87.5v-26.5t-4 -29.5q-57 2 -121 3t-166 1q-68 0 -128 -3t-121.5 -9t-130.5 -16.5t-155 -24.5q-94 37 -182 180zM811 1677q0 18 10 39t27.5 39.5t38 32.5t43.5 20q86 -76 188.5 -130 t194.5 -74q-47 -39 -113 -39q-33 0 -67.5 5t-80.5 18.5t-104.5 35t-136.5 53.5z" />
<glyph unicode="&#xc9;" horiz-adv-x="1247" d="M221 14q35 74 97.5 224.5t158.5 402.5q-92 29 -121 102q10 10 59.5 25.5t121.5 32.5q31 80 52 139t37.5 111.5t30 102.5t25.5 110q-72 4 -113 39.5t-41 93.5q0 16 5.5 38.5t11.5 39.5q41 -6 79 -8.5t99 -2.5q129 0 241.5 7.5t204 15.5t157 15t99.5 7q47 0 84 -49t56 -139 q-63 6 -103.5 8t-70.5 2q-113 0 -206 -11t-179 -24q-12 -18 -27.5 -46.5t-40.5 -80t-60.5 -129t-86.5 -194.5q78 12 146.5 19t115.5 7q68 0 105.5 -36.5t37.5 -102.5q0 -16 -3 -33.5t-7 -29.5q-27 4 -59.5 7t-77.5 3q-88 0 -178.5 -15.5t-172.5 -25.5q-47 -109 -86 -210 t-66.5 -185t-43 -145.5t-17.5 -92.5q166 35 335 59.5t356 36.5q23 -35 38 -75.5t15 -87.5v-26.5t-4 -29.5q-57 2 -121 3t-166 1q-68 0 -128 -3t-121.5 -9t-130.5 -16.5t-155 -24.5q-94 37 -182 180zM915 1604q92 20 194.5 74t188.5 130q43 -12 81 -53t38 -78 q-78 -33 -136 -54t-104.5 -34.5t-81 -18.5t-67.5 -5q-66 0 -113 39z" />
<glyph unicode="&#xca;" horiz-adv-x="1247" d="M221 14q35 74 97.5 224.5t158.5 402.5q-92 29 -121 102q10 10 59.5 25.5t121.5 32.5q31 80 52 139t37.5 111.5t30 102.5t25.5 110q-72 4 -113 39.5t-41 93.5q0 16 5.5 38.5t11.5 39.5q41 -6 79 -8.5t99 -2.5q129 0 241.5 7.5t204 15.5t157 15t99.5 7q47 0 84 -49t56 -139 q-63 6 -103.5 8t-70.5 2q-113 0 -206 -11t-179 -24q-12 -18 -27.5 -46.5t-40.5 -80t-60.5 -129t-86.5 -194.5q78 12 146.5 19t115.5 7q68 0 105.5 -36.5t37.5 -102.5q0 -16 -3 -33.5t-7 -29.5q-27 4 -59.5 7t-77.5 3q-88 0 -178.5 -15.5t-172.5 -25.5q-47 -109 -86 -210 t-66.5 -185t-43 -145.5t-17.5 -92.5q166 35 335 59.5t356 36.5q23 -35 38 -75.5t15 -87.5v-26.5t-4 -29.5q-57 2 -121 3t-166 1q-68 0 -128 -3t-121.5 -9t-130.5 -16.5t-155 -24.5q-94 37 -182 180zM770 1610q156 39 281 145q-4 8 -9 25q41 29 125 28h36.5t21.5 -2 q14 -115 36.5 -174t69.5 -88q-4 -2 -18 -2q-51 0 -105.5 32t-97.5 83q-55 -41 -118.5 -66.5t-110.5 -25.5q-31 0 -58.5 9t-52.5 36z" />
<glyph unicode="&#xcb;" horiz-adv-x="1247" d="M221 14q35 74 97.5 224.5t158.5 402.5q-92 29 -121 102q10 10 59.5 25.5t121.5 32.5q31 80 52 139t37.5 111.5t30 102.5t25.5 110q-72 4 -113 39.5t-41 93.5q0 16 5.5 38.5t11.5 39.5q41 -6 79 -8.5t99 -2.5q129 0 241.5 7.5t204 15.5t157 15t99.5 7q47 0 84 -49t56 -139 q-63 6 -103.5 8t-70.5 2q-113 0 -206 -11t-179 -24q-12 -18 -27.5 -46.5t-40.5 -80t-60.5 -129t-86.5 -194.5q78 12 146.5 19t115.5 7q68 0 105.5 -36.5t37.5 -102.5q0 -16 -3 -33.5t-7 -29.5q-27 4 -59.5 7t-77.5 3q-88 0 -178.5 -15.5t-172.5 -25.5q-47 -109 -86 -210 t-66.5 -185t-43 -145.5t-17.5 -92.5q166 35 335 59.5t356 36.5q23 -35 38 -75.5t15 -87.5v-26.5t-4 -29.5q-57 2 -121 3t-166 1q-68 0 -128 -3t-121.5 -9t-130.5 -16.5t-155 -24.5q-94 37 -182 180zM913 1614q0 31 4.5 64.5t16.5 61t35.5 47t62.5 21.5q27 -4 73 -29.5 t66 -60.5l-17 -22q-17 -23 -40.5 -49.5t-45 -51t-30.5 -30.5q-51 10 -83 20.5t-42 28.5zM1182 1614q0 33 4 66.5t16 61t35 46t59 20.5q12 0 32 -8t40.5 -20.5t38.5 -28.5t31 -33q0 -2 -17.5 -24.5t-40 -50t-45 -52t-35.5 -28.5q-47 6 -76.5 20.5t-41.5 30.5z" />
<glyph unicode="&#xcc;" horiz-adv-x="645" d="M268 117q0 74 23.5 191.5t61.5 253.5t87 278.5t100.5 267.5t100.5 219t88 135q20 -2 54 -15t69 -31.5t63.5 -40t36.5 -40.5q-59 -53 -117.5 -160.5t-112.5 -244.5t-101.5 -290t-82 -296t-54 -266t-19.5 -199q0 -35 6 -43q-45 2 -65.5 15.5t-32 29t-20.5 30.5t-27 23 q-14 6 -24.5 29t-18 50.5t-11.5 56.5t-4 47zM657 1677q0 18 10.5 39t28 39.5t37.5 32.5t43 20q86 -76 188.5 -130t194.5 -74q-47 -39 -112 -39q-33 0 -68 5t-81 18.5t-104.5 35t-136.5 53.5z" />
<glyph unicode="&#xcd;" horiz-adv-x="645" d="M268 117q0 74 23.5 191.5t61.5 253.5t87 278.5t100.5 267.5t100.5 219t88 135q20 -2 54 -15t69 -31.5t63.5 -40t36.5 -40.5q-59 -53 -117.5 -160.5t-112.5 -244.5t-101.5 -290t-82 -296t-54 -266t-19.5 -199q0 -35 6 -43q-45 2 -65.5 15.5t-32 29t-20.5 30.5t-27 23 q-14 6 -24.5 29t-18 50.5t-11.5 56.5t-4 47zM762 1604q92 20 194.5 74t188.5 130q43 -12 81 -53t38 -78q-78 -33 -136.5 -54t-104.5 -34.5t-81 -18.5t-68 -5q-66 0 -112 39z" />
<glyph unicode="&#xce;" horiz-adv-x="645" d="M268 117q0 74 23.5 191.5t61.5 253.5t87 278.5t100.5 267.5t100.5 219t88 135q20 -2 54 -15t69 -31.5t63.5 -40t36.5 -40.5q-59 -53 -117.5 -160.5t-112.5 -244.5t-101.5 -290t-82 -296t-54 -266t-19.5 -199q0 -35 6 -43q-45 2 -65.5 15.5t-32 29t-20.5 30.5t-27 23 q-14 6 -24.5 29t-18 50.5t-11.5 56.5t-4 47zM616 1610q156 39 281 145q-4 8 -8 25q41 29 125 28h36t21 -2q14 -115 36.5 -174t70.5 -88q-4 -2 -19 -2q-51 0 -105.5 32t-97.5 83q-55 -41 -118.5 -66.5t-110.5 -25.5q-31 0 -58.5 9t-52.5 36z" />
<glyph unicode="&#xcf;" horiz-adv-x="645" d="M268 117q0 74 23.5 191.5t61.5 253.5t87 278.5t100.5 267.5t100.5 219t88 135q20 -2 54 -15t69 -31.5t63.5 -40t36.5 -40.5q-59 -53 -117.5 -160.5t-112.5 -244.5t-101.5 -290t-82 -296t-54 -266t-19.5 -199q0 -35 6 -43q-45 2 -65.5 15.5t-32 29t-20.5 30.5t-27 23 q-14 6 -24.5 29t-18 50.5t-11.5 56.5t-4 47zM760 1614q0 31 4 64.5t16.5 61t36 47t62.5 21.5q27 -4 72.5 -29.5t66.5 -60.5l-18 -22q-17 -23 -40.5 -49.5t-45 -51t-29.5 -30.5q-51 10 -83 20.5t-42 28.5zM1028 1614q0 33 4 66.5t16.5 61t35 46t59.5 20.5q12 0 31.5 -8 t40 -20.5t39 -28.5t30.5 -33q0 -2 -17.5 -24.5t-40 -50t-45 -52t-34.5 -28.5q-47 6 -77 20.5t-42 30.5z" />
<glyph unicode="&#xd0;" horiz-adv-x="1593" d="M319 1092q20 94 77 171.5t143 133t198.5 85t241.5 29.5q164 0 301 -48t235.5 -134t153.5 -207t55 -268q0 -201 -73.5 -383t-199.5 -321.5t-292 -222.5t-348 -83q-168 0 -288 66.5t-179 195.5q35 78 84 200t102 263q-53 4 -100 9.5t-88 13.5q4 20 5 49t1 86 q55 -4 112.5 -5t127.5 -1q39 100 74.5 199.5t66.5 184.5t53.5 151.5t34.5 105.5q-129 -53 -221 -161.5t-139 -272.5q-47 16 -86 58t-52 106zM580 41q29 -10 69.5 -14t87.5 -4q166 0 314.5 76.5t260 205.5t176 300t64.5 360q0 211 -131 327.5t-354 116.5q-102 0 -195 -29 q90 -33 149.5 -68.5t82.5 -56.5q-14 -20 -42 -70t-64.5 -120t-78.5 -156t-85 -178q111 12 217 31q16 -27 30.5 -81t14.5 -97q-164 -18 -336 -19q-96 -217 -138 -344t-42 -180z" />
<glyph unicode="&#xd1;" horiz-adv-x="1398" d="M190 -2q0 61 29 173t75 249t105.5 286.5t121 286.5t119.5 251t103 177l-14 86q29 0 80 -14t103.5 -34.5t92 -42t44.5 -36.5q-10 -49 -16.5 -148t-6.5 -212q0 -223 17.5 -437t80.5 -436q33 164 71 327t79 311.5t82 275.5t79 222t70.5 149.5t59.5 58.5q23 -4 49 -17.5 t51 -32t45.5 -41t32.5 -44.5q-66 -27 -130.5 -125t-122.5 -238.5t-108.5 -304.5t-88.5 -322.5t-59.5 -293.5t-23.5 -217q0 -4 2 -7q-6 -2 -13 -2h-13q-94 0 -167 24t-95 67q-43 172 -72 331.5t-48.5 319.5t-30.5 322.5t-17 340.5q-39 -61 -82 -160.5t-84 -218t-79 -249.5 t-66.5 -256t-45 -237t-16.5 -193q0 -43 1 -62t5 -31q-117 35 -158 67t-41 87zM907 1747q96 -33 189 -33q78 0 161.5 22.5t188.5 71.5q25 -25 43 -76t27 -87q-92 -43 -170 -54.5t-146 -11.5q-127 0 -203 48t-90 120z" />
<glyph unicode="&#xd2;" horiz-adv-x="1480" d="M276 301q0 125 28 264.5t78 274.5t119.5 257t152.5 215t178.5 148.5t195.5 55.5q33 0 61.5 -5.5t61.5 -19.5q39 -16 80 -42t75.5 -52.5t58.5 -52t26 -41.5q-35 8 -70 11t-64 3q-92 0 -183 -45t-173 -123t-151.5 -182.5t-119.5 -223t-79 -245.5t-29 -250q0 -160 53.5 -238 t155.5 -78q49 0 106.5 19.5t117 54.5t116.5 84t107 109q72 86 129 195.5t97 232.5t61.5 253t21.5 255q0 49 -2 82.5t-5 57t-5 38t-5 24.5q25 -12 54.5 -29.5t55.5 -51t43 -89t17 -143.5q0 -143 -33.5 -281.5t-94 -263.5t-142.5 -233.5t-176 -190.5q-123 -109 -262 -168 t-268 -59q-188 0 -288 120t-100 353zM1122 1677q0 18 10.5 39t28 39.5t37.5 32.5t43 20q86 -76 188.5 -130t194.5 -74q-47 -39 -113 -39q-33 0 -67.5 5t-80.5 18.5t-104.5 35t-136.5 53.5z" />
<glyph unicode="&#xd3;" horiz-adv-x="1480" d="M276 301q0 125 28 264.5t78 274.5t119.5 257t152.5 215t178.5 148.5t195.5 55.5q33 0 61.5 -5.5t61.5 -19.5q39 -16 80 -42t75.5 -52.5t58.5 -52t26 -41.5q-35 8 -70 11t-64 3q-92 0 -183 -45t-173 -123t-151.5 -182.5t-119.5 -223t-79 -245.5t-29 -250q0 -160 53.5 -238 t155.5 -78q49 0 106.5 19.5t117 54.5t116.5 84t107 109q72 86 129 195.5t97 232.5t61.5 253t21.5 255q0 49 -2 82.5t-5 57t-5 38t-5 24.5q25 -12 54.5 -29.5t55.5 -51t43 -89t17 -143.5q0 -143 -33.5 -281.5t-94 -263.5t-142.5 -233.5t-176 -190.5q-123 -109 -262 -168 t-268 -59q-188 0 -288 120t-100 353zM1227 1604q92 20 194.5 74t188.5 130q43 -12 81 -53t38 -78q-78 -33 -136.5 -54t-104.5 -34.5t-81 -18.5t-68 -5q-66 0 -112 39z" />
<glyph unicode="&#xd4;" horiz-adv-x="1480" d="M276 301q0 125 28 264.5t78 274.5t119.5 257t152.5 215t178.5 148.5t195.5 55.5q33 0 61.5 -5.5t61.5 -19.5q39 -16 80 -42t75.5 -52.5t58.5 -52t26 -41.5q-35 8 -70 11t-64 3q-92 0 -183 -45t-173 -123t-151.5 -182.5t-119.5 -223t-79 -245.5t-29 -250q0 -160 53.5 -238 t155.5 -78q49 0 106.5 19.5t117 54.5t116.5 84t107 109q72 86 129 195.5t97 232.5t61.5 253t21.5 255q0 49 -2 82.5t-5 57t-5 38t-5 24.5q25 -12 54.5 -29.5t55.5 -51t43 -89t17 -143.5q0 -143 -33.5 -281.5t-94 -263.5t-142.5 -233.5t-176 -190.5q-123 -109 -262 -168 t-268 -59q-188 0 -288 120t-100 353zM1081 1610q156 39 281 145q-4 8 -8 25q41 29 125 28h36t21 -2q14 -115 36.5 -174t69.5 -88q-4 -2 -18 -2q-51 0 -105.5 32t-97.5 83q-55 -41 -118.5 -66.5t-110.5 -25.5q-31 0 -58.5 9t-52.5 36z" />
<glyph unicode="&#xd5;" horiz-adv-x="1480" d="M276 301q0 125 28 264.5t78 274.5t119.5 257t152.5 215t178.5 148.5t195.5 55.5q33 0 61.5 -5.5t61.5 -19.5q39 -16 80 -42t75.5 -52.5t58.5 -52t26 -41.5q-35 8 -70 11t-64 3q-92 0 -183 -45t-173 -123t-151.5 -182.5t-119.5 -223t-79 -245.5t-29 -250q0 -160 53.5 -238 t155.5 -78q49 0 106.5 19.5t117 54.5t116.5 84t107 109q72 86 129 195.5t97 232.5t61.5 253t21.5 255q0 49 -2 82.5t-5 57t-5 38t-5 24.5q25 -12 54.5 -29.5t55.5 -51t43 -89t17 -143.5q0 -143 -33.5 -281.5t-94 -263.5t-142.5 -233.5t-176 -190.5q-123 -109 -262 -168 t-268 -59q-188 0 -288 120t-100 353zM1055 1747q96 -33 188 -33q78 0 162 22.5t188 71.5q25 -25 43.5 -76t26.5 -87q-92 -43 -170 -54.5t-145 -11.5q-127 0 -203 48t-90 120z" />
<glyph unicode="&#xd6;" horiz-adv-x="1480" d="M276 301q0 125 28 264.5t78 274.5t119.5 257t152.5 215t178.5 148.5t195.5 55.5q33 0 61.5 -5.5t61.5 -19.5q39 -16 80 -42t75.5 -52.5t58.5 -52t26 -41.5q-35 8 -70 11t-64 3q-92 0 -183 -45t-173 -123t-151.5 -182.5t-119.5 -223t-79 -245.5t-29 -250q0 -160 53.5 -238 t155.5 -78q49 0 106.5 19.5t117 54.5t116.5 84t107 109q72 86 129 195.5t97 232.5t61.5 253t21.5 255q0 49 -2 82.5t-5 57t-5 38t-5 24.5q25 -12 54.5 -29.5t55.5 -51t43 -89t17 -143.5q0 -143 -33.5 -281.5t-94 -263.5t-142.5 -233.5t-176 -190.5q-123 -109 -262 -168 t-268 -59q-188 0 -288 120t-100 353zM1225 1614q0 31 4 64.5t16 61t36 47t62 21.5q27 -4 73 -29.5t67 -60.5l-17 -22q-18 -23 -41.5 -49.5t-45 -51t-29.5 -30.5q-51 10 -83 20.5t-42 28.5zM1493 1614q0 33 4 66.5t16.5 61t35 46t59.5 20.5q12 0 31.5 -8t40 -20.5t39 -28.5 t30.5 -33q0 -2 -17.5 -24.5t-40 -50t-45 -52t-34.5 -28.5q-47 6 -77 20.5t-42 30.5z" />
<glyph unicode="&#xd7;" horiz-adv-x="991" d="M303 211q53 76 109.5 149.5t111.5 141.5q-25 20 -57.5 49t-61 61.5t-48 67.5t-19.5 70q0 27 5 44t18.5 32.5t38 30.5t61.5 38q35 -72 83 -132.5t103 -117.5q86 96 161 170t134 117q18 -10 45 -30.5t51.5 -44t42 -46.5t19.5 -37q-78 -47 -158 -113.5t-162 -144.5 q47 -45 90 -91t82 -95q8 -10 10.5 -21.5t2.5 -23.5q0 -47 -32 -94.5t-63 -81.5q-53 92 -109 157.5t-110 118.5q-129 -139 -248 -285q-29 14 -55 43t-45 68z" />
<glyph unicode="&#xd8;" horiz-adv-x="1480" d="M174 -78q35 16 75 41t83 53q-55 111 -56 285q0 125 28 264.5t78 274.5t119.5 257t152.5 215t178.5 148.5t195.5 55.5q33 0 61.5 -5.5t61.5 -19.5q39 -16 80 -42t75.5 -52.5t58.5 -52t26 -41.5q-35 8 -70 11t-64 3q-92 0 -183 -45t-173 -123t-151.5 -182.5t-119.5 -223 t-79 -245.5t-29 -250q0 -23 1 -44.5t3 -41.5q123 100 254 225t258 258t242 266t207 252q-2 59 -7 106.5t-10 67.5q23 -10 48.5 -25.5t48.5 -39.5q47 66 80.5 123t52.5 102q49 0 85 -18.5t50 -53.5q-102 -139 -209 -270q6 -29 10 -60.5t4 -70.5q0 -143 -33.5 -281.5 t-94 -263.5t-142.5 -233.5t-176 -190.5q-123 -109 -262 -168t-268 -59q-184 0 -283 115q-80 -55 -154 -99q-23 4 -37 27t-16 51zM549 66q49 -133 182 -134q49 0 106.5 19.5t117 54.5t116.5 84t107 109q61 72 111 162t88 191t64 209.5t38 217.5q-231 -270 -470 -504.5 t-460 -408.5z" />
<glyph unicode="&#xd9;" horiz-adv-x="1427" d="M330 270q0 129 28.5 292t76.5 332t111.5 329.5t133.5 287.5q35 -2 82 -14t92 -31.5t83 -43.5t56 -44q-90 -121 -163.5 -266t-126 -297.5t-80 -301t-27.5 -277.5q0 -160 47 -232t162 -72q133 0 233.5 93.5t188.5 257.5q57 106 98 233t66.5 261t38 270.5t12.5 261.5 q0 80 -2 116.5t-6 59.5q6 0 30.5 -4t56 -10.5t63.5 -16.5t54 -22q-10 -156 -37.5 -322t-72.5 -327.5t-104.5 -311t-133.5 -268.5q-109 -176 -244 -275.5t-319 -99.5q-188 0 -292.5 109.5t-104.5 332.5zM924 1677q0 18 10 39t27.5 39.5t37.5 32.5t43 20q86 -76 188.5 -130 t194.5 -74q-47 -39 -112 -39q-33 0 -68 5t-81 18.5t-104.5 35t-135.5 53.5z" />
<glyph unicode="&#xda;" horiz-adv-x="1427" d="M330 270q0 129 28.5 292t76.5 332t111.5 329.5t133.5 287.5q35 -2 82 -14t92 -31.5t83 -43.5t56 -44q-90 -121 -163.5 -266t-126 -297.5t-80 -301t-27.5 -277.5q0 -160 47 -232t162 -72q133 0 233.5 93.5t188.5 257.5q57 106 98 233t66.5 261t38 270.5t12.5 261.5 q0 80 -2 116.5t-6 59.5q6 0 30.5 -4t56 -10.5t63.5 -16.5t54 -22q-10 -156 -37.5 -322t-72.5 -327.5t-104.5 -311t-133.5 -268.5q-109 -176 -244 -275.5t-319 -99.5q-188 0 -292.5 109.5t-104.5 332.5zM1028 1604q92 20 194.5 74t188.5 130q43 -12 81 -53t38 -78 q-78 -33 -136.5 -54t-104.5 -34.5t-80.5 -18.5t-67.5 -5q-66 0 -113 39z" />
<glyph unicode="&#xdb;" horiz-adv-x="1427" d="M330 270q0 129 28.5 292t76.5 332t111.5 329.5t133.5 287.5q35 -2 82 -14t92 -31.5t83 -43.5t56 -44q-90 -121 -163.5 -266t-126 -297.5t-80 -301t-27.5 -277.5q0 -160 47 -232t162 -72q133 0 233.5 93.5t188.5 257.5q57 106 98 233t66.5 261t38 270.5t12.5 261.5 q0 80 -2 116.5t-6 59.5q6 0 30.5 -4t56 -10.5t63.5 -16.5t54 -22q-10 -156 -37.5 -322t-72.5 -327.5t-104.5 -311t-133.5 -268.5q-109 -176 -244 -275.5t-319 -99.5q-188 0 -292.5 109.5t-104.5 332.5zM883 1610q156 39 280 145q-4 8 -8 25q41 29 125 28h36t21 -2 q14 -115 37 -174t70 -88q-4 -2 -19 -2q-51 0 -105 32t-97 83q-55 -41 -119 -66.5t-111 -25.5q-31 0 -58.5 9t-51.5 36z" />
<glyph unicode="&#xdc;" horiz-adv-x="1427" d="M330 270q0 129 28.5 292t76.5 332t111.5 329.5t133.5 287.5q35 -2 82 -14t92 -31.5t83 -43.5t56 -44q-90 -121 -163.5 -266t-126 -297.5t-80 -301t-27.5 -277.5q0 -160 47 -232t162 -72q133 0 233.5 93.5t188.5 257.5q57 106 98 233t66.5 261t38 270.5t12.5 261.5 q0 80 -2 116.5t-6 59.5q6 0 30.5 -4t56 -10.5t63.5 -16.5t54 -22q-10 -156 -37.5 -322t-72.5 -327.5t-104.5 -311t-133.5 -268.5q-109 -176 -244 -275.5t-319 -99.5q-188 0 -292.5 109.5t-104.5 332.5zM1026 1614q0 31 4 64.5t16.5 61t36 47t62.5 21.5q27 -4 73 -29.5 t66 -60.5l-18 -22q-17 -23 -40.5 -49.5t-45 -51t-29.5 -30.5q-51 10 -83 20.5t-42 28.5zM1294 1614q0 33 4.5 66.5t16.5 61t34.5 46t59.5 20.5q12 0 31.5 -8t40 -20.5t39 -28.5t30.5 -33q0 -2 -17 -24.5t-40 -50t-45.5 -52t-34.5 -28.5q-47 6 -77 20.5t-42 30.5z" />
<glyph unicode="&#xdd;" horiz-adv-x="1255" d="M428 1456q20 8 62 16.5t92.5 16.5t102.5 13t93 7q0 -51 9.5 -124.5t24.5 -157.5t35.5 -170t41 -158t40.5 -124t34 -68q154 168 275.5 356t225.5 424q53 -6 102.5 -28.5t78.5 -51.5q-113 -135 -204 -245.5t-167 -208t-140.5 -186.5t-125.5 -179q-31 -104 -57.5 -211 t-47 -204t-32 -180t-11.5 -143q-23 0 -72 9.5t-100 22t-93 24.5t-50 20q33 55 64.5 136t62 170.5t59.5 180.5t53 169q-51 160 -99 300t-93 253.5t-86 195.5t-78 125zM1004 1604q92 20 194 74t188 130q43 -12 81 -53t38 -78q-78 -33 -136 -54t-104 -34.5t-81 -18.5t-68 -5 q-66 0 -112 39z" />
<glyph unicode="&#xde;" d="M227 1001q41 29 97.5 54.5t122 47t137 39t145.5 29.5q23 72 41 150t41 188q16 0 29.5 1t27.5 1q68 0 110 -8t67.5 -20.5t40 -29.5t24.5 -36q-23 -29 -51.5 -87t-65.5 -138q113 -2 204 -33t154.5 -83t97.5 -126t34 -162q0 -113 -56.5 -215t-151.5 -179t-223 -122t-272 -45 h-38t-35 4q-45 27 -93 86q-51 -131 -86.5 -248.5t-60.5 -234.5q-78 18 -127 64.5t-90 115.5q20 39 50 101.5t71 157t95 223.5t126 305l61 151q-96 -33 -176 -72.5t-133 -84.5q-18 12 -37.5 36.5t-36 54t-29 60.5t-14.5 55zM655 418q23 -2 46.5 -2h48.5q137 0 255.5 29.5 t206.5 82t139.5 122t51.5 149.5q0 106 -71.5 170.5t-213.5 64.5q-47 0 -98 -4t-102 -12q-35 -78 -72 -163t-78 -177q-33 -70 -60.5 -134.5t-52.5 -125.5z" />
<glyph unicode="&#xdf;" horiz-adv-x="1228" d="M41 -424q27 145 54.5 277.5t59 255t68.5 236.5t84 222q70 166 167 332t222 312.5t278.5 262t336.5 181.5q45 -27 80.5 -54.5t61.5 -61.5t40 -75t14 -92q0 -84 -36.5 -183t-100 -193.5t-150.5 -168t-188 -104.5q127 -102 177.5 -188t50.5 -181q0 -102 -47.5 -200.5 t-127 -180.5t-184 -139t-217.5 -76q-23 8 -46.5 27.5t-44 46.5t-34.5 59.5t-16 67.5q96 25 188 75t165 116.5t118 142.5t45 149q0 96 -74 179.5t-205 162.5q131 51 238.5 130t184.5 171.5t119 189.5t42 185q0 33 -6 56.5t-21 60.5q-170 -111 -301 -225.5t-234.5 -247.5 t-184 -292t-152.5 -361q-39 -111 -74 -228t-64.5 -227.5t-54 -210.5t-42 -179t-29 -131.5t-15.5 -66.5q-29 12 -43 32.5t-26.5 44t-27.5 48.5t-48 43z" />
<glyph unicode="&#xe0;" horiz-adv-x="962" d="M170 203q0 115 49 241.5t126 235t167 181.5t174 77q20 -6 46 -24.5t49.5 -43t40 -50t18.5 -44.5q-82 -12 -169 -79.5t-158 -163t-116 -204t-45 -202.5q0 -39 29 -49q59 12 137 101t189 276q20 37 45.5 82t52 94t52 99t48.5 97q20 0 48 -7t50.5 -18t38 -23.5t15.5 -22.5 q-41 -86 -76 -173t-59.5 -167t-38 -149.5t-13.5 -121.5q0 -57 12.5 -95t41.5 -54q-25 -16 -64 -26.5t-69 -10.5q-111 0 -111 152q0 117 78 319q-41 -94 -94.5 -177t-108.5 -146.5t-111.5 -103.5t-103.5 -48q-76 4 -123 72.5t-47 175.5zM655 1260q0 29 10.5 63.5t28 68 t37.5 61.5t43 40q43 -72 91 -133.5t98.5 -110.5t99.5 -84t94 -51q-47 -39 -113 -39q-33 0 -67.5 9.5t-80.5 31t-104.5 56t-136.5 88.5z" />
<glyph unicode="&#xe1;" horiz-adv-x="962" d="M170 203q0 115 49 241.5t126 235t167 181.5t174 77q20 -6 46 -24.5t49.5 -43t40 -50t18.5 -44.5q-82 -12 -169 -79.5t-158 -163t-116 -204t-45 -202.5q0 -39 29 -49q59 12 137 101t189 276q20 37 45.5 82t52 94t52 99t48.5 97q20 0 48 -7t50.5 -18t38 -23.5t15.5 -22.5 q-41 -86 -76 -173t-59.5 -167t-38 -149.5t-13.5 -121.5q0 -57 12.5 -95t41.5 -54q-25 -16 -64 -26.5t-69 -10.5q-111 0 -111 152q0 117 78 319q-41 -94 -94.5 -177t-108.5 -146.5t-111.5 -103.5t-103.5 -48q-76 4 -123 72.5t-47 175.5zM760 1114q45 16 94 51t99.5 84 t98.5 110.5t91 133.5q20 -12 41.5 -40t39 -61.5t28 -68.5t10.5 -63q-78 -53 -136.5 -88t-104.5 -56.5t-81 -31t-68 -9.5q-66 0 -112 39z" />
<glyph unicode="&#xe2;" horiz-adv-x="962" d="M170 203q0 115 49 241.5t126 235t167 181.5t174 77q20 -6 46 -24.5t49.5 -43t40 -50t18.5 -44.5q-82 -12 -169 -79.5t-158 -163t-116 -204t-45 -202.5q0 -39 29 -49q59 12 137 101t189 276q20 37 45.5 82t52 94t52 99t48.5 97q20 0 48 -7t50.5 -18t38 -23.5t15.5 -22.5 q-41 -86 -76 -173t-59.5 -167t-38 -149.5t-13.5 -121.5q0 -57 12.5 -95t41.5 -54q-25 -16 -64 -26.5t-69 -10.5q-111 0 -111 152q0 117 78 319q-41 -94 -94.5 -177t-108.5 -146.5t-111.5 -103.5t-103.5 -48q-76 4 -123 72.5t-47 175.5zM600 1192q84 29 155.5 80t137.5 129 l-6 33q41 29 125 28h36t21 -2q6 -92 15.5 -160.5t21.5 -117.5t29.5 -82t40.5 -58q-4 -2 -19 -2q-53 0 -111.5 60.5t-101.5 152.5q-57 -51 -120.5 -82.5t-112.5 -31.5q-61 0 -111 53z" />
<glyph unicode="&#xe3;" horiz-adv-x="962" d="M170 203q0 115 49 241.5t126 235t167 181.5t174 77q20 -6 46 -24.5t49.5 -43t40 -50t18.5 -44.5q-82 -12 -169 -79.5t-158 -163t-116 -204t-45 -202.5q0 -39 29 -49q59 12 137 101t189 276q20 37 45.5 82t52 94t52 99t48.5 97q20 0 48 -7t50.5 -18t38 -23.5t15.5 -22.5 q-41 -86 -76 -173t-59.5 -167t-38 -149.5t-13.5 -121.5q0 -57 12.5 -95t41.5 -54q-25 -16 -64 -26.5t-69 -10.5q-111 0 -111 152q0 117 78 319q-41 -94 -94.5 -177t-108.5 -146.5t-111.5 -103.5t-103.5 -48q-76 4 -123 72.5t-47 175.5zM588 1278q96 -33 188 -33 q78 0 162 23.5t188 72.5q12 -14 23.5 -36.5t21 -48t15.5 -52t10 -47.5q-92 -33 -170 -47t-145 -14q-127 0 -203 55t-90 127z" />
<glyph unicode="&#xe4;" horiz-adv-x="962" d="M170 203q0 115 49 241.5t126 235t167 181.5t174 77q20 -6 46 -24.5t49.5 -43t40 -50t18.5 -44.5q-82 -12 -169 -79.5t-158 -163t-116 -204t-45 -202.5q0 -39 29 -49q59 12 137 101t189 276q20 37 45.5 82t52 94t52 99t48.5 97q20 0 48 -7t50.5 -18t38 -23.5t15.5 -22.5 q-41 -86 -76 -173t-59.5 -167t-38 -149.5t-13.5 -121.5q0 -57 12.5 -95t41.5 -54q-25 -16 -64 -26.5t-69 -10.5q-111 0 -111 152q0 117 78 319q-41 -94 -94.5 -177t-108.5 -146.5t-111.5 -103.5t-103.5 -48q-76 4 -123 72.5t-47 175.5zM758 1239q0 31 4 64.5t16.5 61.5 t36 47.5t62.5 21.5q27 -4 72.5 -30t66.5 -61l-20 -33q-21 -32 -46.5 -72t-51.5 -76t-36 -44q-43 18 -68.5 51t-35.5 70zM1026 1194q0 33 4 66.5t16.5 61.5t35 46t59.5 21q12 0 31.5 -8.5t40 -20.5t39 -28.5t30.5 -33.5q0 -2 -19.5 -34.5t-46 -71.5t-53 -74t-39.5 -41 q-41 16 -64.5 49t-33.5 68z" />
<glyph unicode="&#xe5;" horiz-adv-x="962" d="M170 203q0 115 49 241.5t126 235t167 181.5t174 77q20 -6 46 -24.5t49.5 -43t40 -50t18.5 -44.5q-82 -12 -169 -79.5t-158 -163t-116 -204t-45 -202.5q0 -39 29 -49q59 12 137 101t189 276q20 37 45.5 82t52 94t52 99t48.5 97q20 0 48 -7t50.5 -18t38 -23.5t15.5 -22.5 q-41 -86 -76 -173t-59.5 -167t-38 -149.5t-13.5 -121.5q0 -57 12.5 -95t41.5 -54q-25 -16 -64 -26.5t-69 -10.5q-111 0 -111 152q0 117 78 319q-41 -94 -94.5 -177t-108.5 -146.5t-111.5 -103.5t-103.5 -48q-76 4 -123 72.5t-47 175.5zM702 1255q0 45 20.5 81t53.5 62.5 t73 41t79 14.5q43 0 79.5 -14.5t64.5 -38t44.5 -55t16.5 -66.5q0 -41 -23 -86q-31 -53 -82 -87t-113 -34q-41 0 -78.5 14.5t-67.5 39t-48.5 58.5t-18.5 70zM821 1227q0 -43 16.5 -73t53.5 -30t65.5 17.5t49 43t31 56t10.5 57.5q0 35 -20.5 63t-59.5 28q-23 0 -48.5 -13.5 t-47 -35t-36 -51t-14.5 -62.5z" />
<glyph unicode="&#xe6;" horiz-adv-x="1415" d="M184 242q0 154 61.5 281.5t146.5 221t174 145.5t143 56q18 -4 43.5 -21.5t50 -41t42 -50t21.5 -49.5q-61 -10 -122.5 -47t-118 -91t-106.5 -120.5t-86 -136.5t-57.5 -136.5t-21.5 -121.5q0 -39 37 -39q31 0 73 22.5t90 63.5t100.5 97.5t103.5 121.5q16 74 39.5 145.5 t49 132t52 104t51.5 57.5q20 0 46 -7.5t48 -17.5q78 66 160 105.5t160 39.5q57 0 98 -23.5t99 -88.5q-6 -119 -46 -211t-115 -164t-188.5 -126t-267.5 -95q-4 -18 -6 -39t-2 -43q0 -43 15.5 -83t62.5 -60q106 27 215.5 82t181.5 118q20 -20 31 -39q-104 -111 -222 -181.5 t-216 -80.5q-78 14 -129.5 36t-82 60.5t-44 100t-13.5 155.5q-111 -150 -213 -230.5t-180 -80.5q-43 0 -73.5 25.5t-49 65.5t-27 89.5t-8.5 98.5zM969 326q86 31 160.5 79t133 106t97.5 123.5t49 135.5q-55 -2 -118.5 -37t-124 -95t-113 -140t-84.5 -172z" />
<glyph unicode="&#xe7;" horiz-adv-x="856" d="M209 360q0 117 48 226.5t127 194.5t180.5 137.5t209.5 52.5q106 0 163.5 -53.5t57.5 -151.5q0 -47 -13 -91t-34.5 -79t-50.5 -56.5t-57 -21.5q-25 0 -50.5 15.5t-41.5 39.5q137 125 137 228q0 59 -47 59q-41 0 -102.5 -39t-119.5 -102q-88 -98 -134 -218t-46 -251 q0 -166 74 -199q31 4 72 18.5t88 38t97 54.5t97 65q8 -6 14.5 -18t6.5 -23q-33 -41 -76 -79.5t-90 -71.5t-92 -57.5t-80 -32.5q-33 -47 -59.5 -92.5t-41.5 -79.5q18 10 46 19t57 17.5t56.5 12.5t45.5 4q8 0 28.5 -13.5t40 -29.5t35 -32.5t15.5 -24.5q0 -14 -24.5 -45 t-62.5 -68t-85 -78t-90 -73.5t-79 -54t-52 -21.5q-4 0 -11.5 9t-14.5 21.5t-12 24.5t-5 18q47 39 82 72t63.5 63.5t53 65.5t51.5 78q-16 -4 -47 -11.5t-65 -18.5t-67.5 -22.5t-58.5 -19.5q-6 4 -10 11.5t-6 13.5q10 35 55 108.5t104 149.5q-59 14 -110 53t-89 94.5 t-59.5 122.5t-21.5 141z" />
<glyph unicode="&#xe8;" horiz-adv-x="827" d="M178 233q0 84 23.5 171.5t65.5 168t98.5 152.5t121 125t133 84t136.5 31q94 -13 176 -117q-8 -127 -45 -218t-105.5 -160t-167 -124t-229.5 -106q0 -12 -1 -25.5t-1 -28.5q0 -27 4 -55.5t14.5 -53t29 -39.5t46.5 -15q55 0 108.5 24.5t101.5 60t90 77.5t75 77 q20 -18 35 -35q-92 -123 -202 -203.5t-208 -103.5q-141 16 -220 103.5t-79 209.5zM401 317q164 82 273 202t117 261q-55 -8 -115 -45t-112 -98.5t-95 -143t-68 -176.5zM639 1260q0 29 10 63.5t27.5 68t38 61.5t43.5 40q43 -72 91 -133.5t98 -110.5t99.5 -84t94.5 -51 q-47 -39 -113 -39q-33 0 -67.5 9.5t-80.5 31t-104.5 56t-136.5 88.5z" />
<glyph unicode="&#xe9;" horiz-adv-x="827" d="M178 233q0 84 23.5 171.5t65.5 168t98.5 152.5t121 125t133 84t136.5 31q94 -13 176 -117q-8 -127 -45 -218t-105.5 -160t-167 -124t-229.5 -106q0 -12 -1 -25.5t-1 -28.5q0 -27 4 -55.5t14.5 -53t29 -39.5t46.5 -15q55 0 108.5 24.5t101.5 60t90 77.5t75 77 q20 -18 35 -35q-92 -123 -202 -203.5t-208 -103.5q-141 16 -220 103.5t-79 209.5zM401 317q164 82 273 202t117 261q-55 -8 -115 -45t-112 -98.5t-95 -143t-68 -176.5zM743 1114q45 16 94.5 51t99.5 84t98 110.5t91 133.5q20 -12 42 -40t39.5 -61.5t27.5 -68.5t10 -63 q-78 -53 -136 -88t-104.5 -56.5t-81 -31t-67.5 -9.5q-66 0 -113 39z" />
<glyph unicode="&#xea;" horiz-adv-x="827" d="M178 233q0 84 23.5 171.5t65.5 168t98.5 152.5t121 125t133 84t136.5 31q94 -13 176 -117q-8 -127 -45 -218t-105.5 -160t-167 -124t-229.5 -106q0 -12 -1 -25.5t-1 -28.5q0 -27 4 -55.5t14.5 -53t29 -39.5t46.5 -15q55 0 108.5 24.5t101.5 60t90 77.5t75 77 q20 -18 35 -35q-92 -123 -202 -203.5t-208 -103.5q-141 16 -220 103.5t-79 209.5zM401 317q164 82 273 202t117 261q-55 -8 -115 -45t-112 -98.5t-95 -143t-68 -176.5zM584 1192q84 29 155.5 80t137.5 129l-7 33q41 29 125 28h36.5t21.5 -2q6 -92 15 -160.5t21.5 -117.5 t30 -82t39.5 -58q-4 -2 -18 -2q-53 0 -111.5 60.5t-101.5 152.5q-57 -51 -121 -82.5t-113 -31.5q-61 0 -110 53z" />
<glyph unicode="&#xeb;" horiz-adv-x="827" d="M178 233q0 84 23.5 171.5t65.5 168t98.5 152.5t121 125t133 84t136.5 31q94 -13 176 -117q-8 -127 -45 -218t-105.5 -160t-167 -124t-229.5 -106q0 -12 -1 -25.5t-1 -28.5q0 -27 4 -55.5t14.5 -53t29 -39.5t46.5 -15q55 0 108.5 24.5t101.5 60t90 77.5t75 77 q20 -18 35 -35q-92 -123 -202 -203.5t-208 -103.5q-141 16 -220 103.5t-79 209.5zM401 317q164 82 273 202t117 261q-55 -8 -115 -45t-112 -98.5t-95 -143t-68 -176.5zM741 1239q0 31 4.5 64.5t16.5 61.5t35.5 47.5t62.5 21.5q27 -4 73 -30t66 -61l-21 -33 q-20 -32 -45.5 -72t-51 -76t-35.5 -44q-43 18 -69 51t-36 70zM1010 1194q0 33 4 66.5t16 61.5t34.5 46t59.5 21q12 0 32 -8.5t40.5 -20.5t38.5 -28.5t31 -33.5q0 -2 -19.5 -34.5t-46 -71.5t-53.5 -74t-39 -41q-41 16 -64.5 49t-33.5 68z" />
<glyph unicode="&#xec;" horiz-adv-x="489" d="M199 115q0 18 3 46.5t11 74t21.5 110t31.5 154.5q4 18 16.5 63t34 97.5t54 98.5t80.5 68q35 -4 93 -37.5t99 -93.5q-90 -106 -136 -218.5t-87 -246.5q-23 -72 -40.5 -123t-17.5 -100q0 -37 -1 -53t-11 -16q-6 0 -30.5 10t-51 31.5t-48 54.5t-21.5 80zM414 1159 q0 29 10 63.5t27.5 68.5t37.5 62t43 40q43 -72 91.5 -133.5t98.5 -110.5t99 -84t94 -51q-47 -39 -112 -39q-33 0 -68 9t-81 30.5t-104 56.5t-136 88z" />
<glyph unicode="&#xed;" horiz-adv-x="489" d="M199 115q0 18 3 46.5t11 74t21.5 110t31.5 154.5q4 18 16.5 63t34 97.5t54 98.5t80.5 68q35 -4 93 -37.5t99 -93.5q-90 -106 -136 -218.5t-87 -246.5q-23 -72 -40.5 -123t-17.5 -100q0 -37 -1 -53t-11 -16q-6 0 -30.5 10t-51 31.5t-48 54.5t-21.5 80zM518 1014 q45 16 94.5 51t99.5 84t98 110.5t91 133.5q20 -12 42 -40t39 -62t27.5 -68.5t10.5 -63.5q-78 -53 -136.5 -88t-104.5 -56.5t-80.5 -30.5t-67.5 -9q-66 0 -113 39z" />
<glyph unicode="&#xee;" horiz-adv-x="616" d="M193 115q0 18 3 46.5t11 74t21.5 110t31.5 154.5q4 18 16.5 63t34 97.5t54 98.5t79.5 68q35 -4 93.5 -37.5t99.5 -93.5q-90 -106 -136 -218.5t-87 -246.5q-23 -72 -40.5 -123t-17.5 -100q0 -37 -1 -53t-11 -16q-6 0 -30.5 10t-51 31.5t-48 54.5t-21.5 80zM352 1092 q84 29 156 80t137 128l-6 33q41 29 125 29h36t21 -2q6 -92 15.5 -161t21.5 -118t29.5 -81.5t40.5 -57.5q-4 -2 -19 -2q-53 0 -111.5 60.5t-101.5 152.5q-57 -51 -120.5 -83t-112.5 -32q-61 0 -111 54z" />
<glyph unicode="&#xef;" horiz-adv-x="489" d="M199 115q0 18 3 46.5t11 74t21.5 110t31.5 154.5q4 18 16.5 63t34 97.5t54 98.5t80.5 68q35 -4 93 -37.5t99 -93.5q-90 -106 -136 -218.5t-87 -246.5q-23 -72 -40.5 -123t-17.5 -100q0 -37 -1 -53t-11 -16q-6 0 -30.5 10t-51 31.5t-48 54.5t-21.5 80zM516 1139 q0 31 4 64.5t16.5 61t36 47t62.5 21.5q27 -4 73 -29.5t66 -60.5l-20 -33q-21 -32 -46.5 -72t-51 -76t-35.5 -44q-43 18 -69 51t-36 70zM784 1094q0 33 4.5 66.5t16.5 61t34.5 46t59.5 20.5q12 0 31.5 -8t40 -20.5t39 -29t30.5 -32.5q0 -2 -19.5 -35t-46 -71.5t-53 -73.5 t-38.5 -41q-41 16 -65 49t-34 68z" />
<glyph unicode="&#xf0;" horiz-adv-x="886" d="M162 186q0 70 21.5 152t57 163t84 157.5t102.5 138t109.5 104.5t108.5 55q41 0 94.5 -24.5t94.5 -63.5q-10 92 -30 174t-59 175q-59 -25 -113 -50.5t-108 -52.5q-12 6 -25.5 23.5t-25.5 40t-22.5 47t-16.5 49.5q59 23 119.5 45t120.5 43q-23 43 -50.5 91t-62.5 101 q6 18 27.5 43t49.5 46.5t57.5 38t56.5 20.5q45 -49 85 -117.5t74 -148.5q104 27 209 43q10 -27 20.5 -64t14.5 -65q-53 -14 -100 -26.5t-92 -27.5q33 -102 51 -206.5t18 -200.5q0 -106 -23.5 -219t-65.5 -220.5t-97 -203.5t-119.5 -172t-134.5 -124t-139 -61 q-141 16 -216 91t-75 206zM344 88q0 -103 92 -117q72 25 143.5 109t129 197.5t93.5 243.5t36 251v43t-2 16q-49 -20 -104.5 -69t-111 -113.5t-104.5 -140.5t-88 -151.5t-61.5 -145.5t-22.5 -123z" />
<glyph unicode="&#xf1;" horiz-adv-x="1105" d="M154 57q0 39 11 98.5t30.5 132t48 152.5t63.5 160q78 180 142.5 282.5t80.5 110.5q53 -16 100.5 -72.5t69.5 -123.5q-23 -55 -69.5 -133t-94 -159t-85 -153.5t-43.5 -120.5q33 35 72.5 81t77.5 92.5t71 84t51 56.5q39 41 92 95t111.5 102.5t118 82t108.5 33.5 q53 0 89 -36t56 -74q0 -4 -15 -11.5t-44 -40.5q-29 -37 -64.5 -101.5t-69.5 -139t-56.5 -152.5t-22.5 -141q0 -51 13.5 -65.5t37.5 -14.5q23 0 47.5 10t38.5 10q8 -4 13.5 -17t5.5 -24q-16 -14 -39 -28.5t-47.5 -26.5t-48 -20.5t-41.5 -8.5q-59 0 -97.5 17.5t-60 46.5 t-29.5 69t-8 85q0 25 4 55.5t16.5 72.5t35 100t57.5 140q-4 0 -55.5 -28.5t-110.5 -88.5q-96 -92 -173 -182t-157 -201q-45 -63 -79 -107t-58 -58q-43 25 -63.5 68.5t-30.5 90.5zM643 1233q96 -33 188 -33q78 0 162 23.5t189 72.5q12 -14 23.5 -36.5t20.5 -48t15 -52 t10 -47.5q-92 -33 -169.5 -47t-145.5 -14q-127 0 -203 55t-90 127z" />
<glyph unicode="&#xf2;" horiz-adv-x="903" d="M184 260q0 82 24.5 170t70 171t106.5 156.5t133 127.5q113 84 211 84q66 -35 129 -146q10 0 18.5 1t18.5 1q109 0 109 -192q0 -129 -42 -245t-117 -210t-178.5 -158.5t-226.5 -91.5q-117 12 -186.5 102.5t-69.5 229.5zM379 158q0 -49 16.5 -94.5t36.5 -51.5 q92 20 169 76.5t133.5 140.5t88 190.5t31.5 227.5q0 53 -6 84t-21 53q-90 -27 -160.5 -86t-121.5 -125q-35 -47 -65.5 -102t-53.5 -111.5t-35 -108.5t-12 -93zM700 1235q0 29 10.5 63.5t28 68.5t37.5 61.5t43 39.5q43 -72 91 -133t98.5 -110t99.5 -84t94 -51 q-47 -39 -112 -39q-33 0 -68 9t-81 30.5t-104.5 56.5t-136.5 88z" />
<glyph unicode="&#xf3;" horiz-adv-x="903" d="M184 260q0 82 24.5 170t70 171t106.5 156.5t133 127.5q113 84 211 84q66 -35 129 -146q10 0 18.5 1t18.5 1q109 0 109 -192q0 -129 -42 -245t-117 -210t-178.5 -158.5t-226.5 -91.5q-117 12 -186.5 102.5t-69.5 229.5zM379 158q0 -49 16.5 -94.5t36.5 -51.5 q92 20 169 76.5t133.5 140.5t88 190.5t31.5 227.5q0 53 -6 84t-21 53q-90 -27 -160.5 -86t-121.5 -125q-35 -47 -65.5 -102t-53.5 -111.5t-35 -108.5t-12 -93zM805 1090q45 16 94 51t99.5 84t98.5 110t91 133q20 -12 41.5 -39.5t39 -61.5t28 -68.5t10.5 -63.5 q-78 -53 -136.5 -88t-104.5 -56.5t-81 -30.5t-67 -9q-66 0 -113 39z" />
<glyph unicode="&#xf4;" horiz-adv-x="903" d="M184 260q0 82 24.5 170t70 171t106.5 156.5t133 127.5q113 84 211 84q66 -35 129 -146q10 0 18.5 1t18.5 1q109 0 109 -192q0 -129 -42 -245t-117 -210t-178.5 -158.5t-226.5 -91.5q-117 12 -186.5 102.5t-69.5 229.5zM379 158q0 -49 16.5 -94.5t36.5 -51.5 q92 20 169 76.5t133.5 140.5t88 190.5t31.5 227.5q0 53 -6 84t-21 53q-90 -27 -160.5 -86t-121.5 -125q-35 -47 -65.5 -102t-53.5 -111.5t-35 -108.5t-12 -93zM645 1167q84 29 155.5 80t137.5 129l-6 33q41 29 125 29h36t21 -2q6 -92 15.5 -161t21.5 -118t29.5 -82t40.5 -57 q-4 -2 -19 -2q-53 0 -111.5 60.5t-101.5 152.5q-57 -51 -120.5 -83t-112.5 -32q-61 0 -111 53z" />
<glyph unicode="&#xf5;" horiz-adv-x="903" d="M184 260q0 82 24.5 170t70 171t106.5 156.5t133 127.5q113 84 211 84q66 -35 129 -146q10 0 18.5 1t18.5 1q109 0 109 -192q0 -129 -42 -245t-117 -210t-178.5 -158.5t-226.5 -91.5q-117 12 -186.5 102.5t-69.5 229.5zM379 158q0 -49 16.5 -94.5t36.5 -51.5 q92 20 169 76.5t133.5 140.5t88 190.5t31.5 227.5q0 53 -6 84t-21 53q-90 -27 -160.5 -86t-121.5 -125q-35 -47 -65.5 -102t-53.5 -111.5t-35 -108.5t-12 -93zM633 1253q96 -33 188 -32q78 0 162 23.5t188 72.5q12 -14 23.5 -37t21 -48.5t15.5 -52t10 -46.5 q-92 -33 -170 -47.5t-145 -14.5q-127 0 -203 55t-90 127z" />
<glyph unicode="&#xf6;" horiz-adv-x="903" d="M184 260q0 82 24.5 170t70 171t106.5 156.5t133 127.5q113 84 211 84q66 -35 129 -146q10 0 18.5 1t18.5 1q109 0 109 -192q0 -129 -42 -245t-117 -210t-178.5 -158.5t-226.5 -91.5q-117 12 -186.5 102.5t-69.5 229.5zM379 158q0 -49 16.5 -94.5t36.5 -51.5 q92 20 169 76.5t133.5 140.5t88 190.5t31.5 227.5q0 53 -6 84t-21 53q-90 -27 -160.5 -86t-121.5 -125q-35 -47 -65.5 -102t-53.5 -111.5t-35 -108.5t-12 -93zM803 1214q0 31 4 65t16.5 61.5t36 47t62.5 21.5q27 -4 72.5 -29.5t66.5 -60.5l-21 -33q-20 -33 -45.5 -72.5 t-51 -75.5t-36.5 -44q-43 18 -68.5 50.5t-35.5 69.5zM1071 1169q0 33 4 67t16.5 61.5t35 46t59.5 20.5q12 0 31.5 -8t40 -20.5t39 -29t30.5 -32.5q0 -2 -19.5 -35t-46 -72t-53 -73.5t-39.5 -40.5q-41 16 -64.5 48.5t-33.5 67.5z" />
<glyph unicode="&#xf7;" horiz-adv-x="1140" d="M246 516q0 10 5 31.5t9 32.5q39 -6 75 -8.5t93 -2.5q121 0 227.5 6.5t192.5 14.5t147.5 14t94.5 6q45 0 79.5 -47t51.5 -135q-59 6 -97.5 8t-66.5 2q-102 0 -190.5 -9t-166 -19.5t-149 -19.5t-143.5 -9q-74 0 -118 36t-44 99zM516 53q0 23 7 57.5t16.5 70.5t17.5 68 l12 48q20 0 55 -11.5t71 -29.5t68 -43t50 -51q-16 -37 -43 -70t-54.5 -57.5t-54.5 -38.5t-43 -14q-29 4 -61.5 24.5t-40.5 46.5zM721 745q0 23 7 58t16.5 70.5t17.5 67.5l12 48q20 0 55 -11t71 -29.5t67.5 -43t50.5 -51.5q-16 -37 -43 -69.5t-54.5 -57.5t-54.5 -39t-43 -14 q-29 4 -61.5 24.5t-40.5 46.5z" />
<glyph unicode="&#xf8;" horiz-adv-x="905" d="M66 -78q37 16 83 47t97 72q-61 90 -62 219q0 82 24.5 170t70 171t106.5 156.5t133 127.5q113 84 211 84q66 -35 129 -146q10 0 18.5 1t18.5 1q20 0 37 -6q37 59 64.5 111.5t41.5 95.5q49 0 85 -18.5t51 -53.5q-43 -61 -86.5 -122.5t-90.5 -120.5q6 -35 7 -78 q0 -129 -42 -245t-117 -210t-178.5 -158.5t-226.5 -91.5q-78 10 -133 49q-104 -82 -188 -133q-23 4 -37 27t-16 51zM379 158q123 117 249 259t224 281q-6 55 -25 86q-90 -27 -160.5 -86t-121.5 -125q-35 -47 -65.5 -102t-53.5 -111.5t-35 -108.5t-12 -93zM397 53 q16 -35 35 -41q80 16 148.5 61.5t122 112t90.5 151.5t51 183q-113 -135 -225.5 -252.5t-221.5 -214.5z" />
<glyph unicode="&#xf9;" horiz-adv-x="1011" d="M174 119q0 57 3 94t13 80q18 78 54.5 176t83.5 193.5t105.5 178.5t123.5 130q18 0 43 -3t50.5 -11.5t49 -19.5t39.5 -30q-18 -20 -93 -137t-167 -336q-10 -23 -24.5 -65.5t-28.5 -90t-23.5 -92.5t-9.5 -71q0 -16 5 -24.5t10 -12.5q31 12 77.5 67.5t130.5 169.5 q20 29 48 66t57 79t54.5 87t41.5 90q8 25 21.5 58.5t33 70.5t45 75t60.5 70q27 0 57.5 -6t58 -15t48 -20.5t30.5 -23.5q-37 -90 -82 -178t-83.5 -173t-65.5 -169t-27 -164q0 -43 7.5 -75t15.5 -53.5t15 -35.5t7 -25q0 -2 -4 -6q-2 -2 -4 -2q-14 0 -36.5 6t-50 17.5t-55 26 t-52.5 30.5q-39 33 -52.5 82t-13.5 84q0 43 10 74q-8 0 -36.5 -33t-62.5 -78t-66.5 -88t-49.5 -63q-27 -29 -50 -45.5t-38 -18.5q-33 2 -68.5 13.5t-67.5 32t-55.5 49t-31.5 65.5zM676 1260q0 29 10 63.5t27.5 68t38 61.5t43.5 40q43 -72 91 -133.5t98 -110.5t99.5 -84 t94.5 -51q-47 -39 -113 -39q-33 0 -67.5 9.5t-81 31t-104.5 56t-136 88.5z" />
<glyph unicode="&#xfa;" horiz-adv-x="1011" d="M174 119q0 57 3 94t13 80q18 78 54.5 176t83.5 193.5t105.5 178.5t123.5 130q18 0 43 -3t50.5 -11.5t49 -19.5t39.5 -30q-18 -20 -93 -137t-167 -336q-10 -23 -24.5 -65.5t-28.5 -90t-23.5 -92.5t-9.5 -71q0 -16 5 -24.5t10 -12.5q31 12 77.5 67.5t130.5 169.5 q20 29 48 66t57 79t54.5 87t41.5 90q8 25 21.5 58.5t33 70.5t45 75t60.5 70q27 0 57.5 -6t58 -15t48 -20.5t30.5 -23.5q-37 -90 -82 -178t-83.5 -173t-65.5 -169t-27 -164q0 -43 7.5 -75t15.5 -53.5t15 -35.5t7 -25q0 -2 -4 -6q-2 -2 -4 -2q-14 0 -36.5 6t-50 17.5t-55 26 t-52.5 30.5q-39 33 -52.5 82t-13.5 84q0 43 10 74q-8 0 -36.5 -33t-62.5 -78t-66.5 -88t-49.5 -63q-27 -29 -50 -45.5t-38 -18.5q-33 2 -68.5 13.5t-67.5 32t-55.5 49t-31.5 65.5zM780 1114q45 16 94.5 51t99.5 84t98 110.5t91 133.5q20 -12 42 -40t39.5 -61.5t27.5 -68.5 t10 -63q-78 -53 -136.5 -88t-104.5 -56.5t-80.5 -31t-67.5 -9.5q-66 0 -113 39z" />
<glyph unicode="&#xfb;" horiz-adv-x="1011" d="M174 119q0 57 3 94t13 80q18 78 54.5 176t83.5 193.5t105.5 178.5t123.5 130q18 0 43 -3t50.5 -11.5t49 -19.5t39.5 -30q-18 -20 -93 -137t-167 -336q-10 -23 -24.5 -65.5t-28.5 -90t-23.5 -92.5t-9.5 -71q0 -16 5 -24.5t10 -12.5q31 12 77.5 67.5t130.5 169.5 q20 29 48 66t57 79t54.5 87t41.5 90q8 25 21.5 58.5t33 70.5t45 75t60.5 70q27 0 57.5 -6t58 -15t48 -20.5t30.5 -23.5q-37 -90 -82 -178t-83.5 -173t-65.5 -169t-27 -164q0 -43 7.5 -75t15.5 -53.5t15 -35.5t7 -25q0 -2 -4 -6q-2 -2 -4 -2q-14 0 -36.5 6t-50 17.5t-55 26 t-52.5 30.5q-39 33 -52.5 82t-13.5 84q0 43 10 74q-8 0 -36.5 -33t-62.5 -78t-66.5 -88t-49.5 -63q-27 -29 -50 -45.5t-38 -18.5q-33 2 -68.5 13.5t-67.5 32t-55.5 49t-31.5 65.5zM621 1192q84 29 155.5 80t136.5 129l-6 33q41 29 125 28h36.5t21.5 -2q6 -92 15 -160.5 t21.5 -117.5t30 -82t39.5 -58q-4 -2 -18 -2q-53 0 -111.5 60.5t-101.5 152.5q-57 -51 -121 -82.5t-113 -31.5q-61 0 -110 53z" />
<glyph unicode="&#xfc;" horiz-adv-x="1011" d="M174 119q0 57 3 94t13 80q18 78 54.5 176t83.5 193.5t105.5 178.5t123.5 130q18 0 43 -3t50.5 -11.5t49 -19.5t39.5 -30q-18 -20 -93 -137t-167 -336q-10 -23 -24.5 -65.5t-28.5 -90t-23.5 -92.5t-9.5 -71q0 -16 5 -24.5t10 -12.5q31 12 77.5 67.5t130.5 169.5 q20 29 48 66t57 79t54.5 87t41.5 90q8 25 21.5 58.5t33 70.5t45 75t60.5 70q27 0 57.5 -6t58 -15t48 -20.5t30.5 -23.5q-37 -90 -82 -178t-83.5 -173t-65.5 -169t-27 -164q0 -43 7.5 -75t15.5 -53.5t15 -35.5t7 -25q0 -2 -4 -6q-2 -2 -4 -2q-14 0 -36.5 6t-50 17.5t-55 26 t-52.5 30.5q-39 33 -52.5 82t-13.5 84q0 43 10 74q-8 0 -36.5 -33t-62.5 -78t-66.5 -88t-49.5 -63q-27 -29 -50 -45.5t-38 -18.5q-33 2 -68.5 13.5t-67.5 32t-55.5 49t-31.5 65.5zM778 1239q0 31 4 64.5t16.5 61.5t36 47.5t62.5 21.5q27 -4 73 -30t66 -61l-20 -33 q-21 -32 -46.5 -72t-51 -76t-35.5 -44q-43 18 -69 51t-36 70zM1047 1194q0 33 4 66.5t16 61.5t34.5 46t59.5 21q12 0 31.5 -8.5t40 -20.5t39 -28.5t31.5 -33.5q0 -2 -19.5 -34.5t-46.5 -71.5t-53.5 -74t-38.5 -41q-41 16 -64.5 49t-33.5 68z" />
<glyph unicode="&#xfd;" horiz-adv-x="1001" d="M-193 -598q0 25 29 43q25 -23 41.5 -35t31.5 -20t32.5 -10.5t40.5 -2.5q117 0 228.5 69t210.5 195t181 305t139 400q-27 -41 -65.5 -100.5t-85.5 -117.5t-97.5 -105.5t-97.5 -63.5q-33 2 -68.5 13.5t-67.5 32t-56.5 49t-32.5 65.5q0 59 4 95t14 79q18 78 54.5 176 t84.5 193.5t106.5 178.5t121.5 130q16 0 41 -3t51.5 -11.5t51 -19.5t42.5 -30q-23 -20 -98.5 -137t-167.5 -336q-10 -23 -24.5 -65.5t-27.5 -90t-23.5 -92.5t-10.5 -71q0 -16 5 -24.5t9 -12.5q37 6 98.5 60.5t139.5 168.5q49 74 90 146.5t81 146.5t83 151.5t92 159.5 q27 0 57.5 -6t59.5 -15t50.5 -20.5t31.5 -23.5q-63 -135 -118.5 -264.5t-98.5 -264.5q-47 -150 -94.5 -272.5t-100.5 -226t-114.5 -190.5t-135.5 -165q-94 -98 -194.5 -150t-200.5 -52q-51 0 -101.5 11t-94.5 30.5t-77.5 45t-48.5 54.5zM731 1126q45 16 94 51t99.5 84.5 t98.5 110.5t91 133q20 -12 42 -39.5t39 -61.5t27.5 -69t10.5 -63q-78 -53 -136.5 -88t-104.5 -56.5t-80.5 -31t-67.5 -9.5q-66 0 -113 39z" />
<glyph unicode="&#xfe;" horiz-adv-x="1019" d="M2 -469q0 43 14.5 118t40 169t62.5 203.5t82 222.5q55 141 95 245.5t66.5 179t45 125t30.5 83.5q55 135 113.5 265t116 240.5t110.5 193.5t96 124q20 -4 52 -18.5t65 -34t58.5 -40t35.5 -36.5q-61 -51 -132.5 -156.5t-143.5 -243t-137.5 -294t-116.5 -308.5q20 35 53 76 t101 113q76 78 142.5 120t115.5 42q78 0 128 -43t50 -111q0 -147 -49 -291.5t-142 -261.5q-35 -45 -82 -86t-98 -72.5t-100 -50t-88 -18.5q-37 0 -64.5 15t-38.5 38q80 47 156 131t140.5 193.5t112.5 236.5t73 258q-78 -41 -140.5 -89t-124.5 -126q-74 -90 -116.5 -145.5 t-70.5 -94t-45 -72.5t-38 -83q-29 -66 -66.5 -173.5t-77.5 -240.5t-80 -283.5t-77 -300.5q-23 4 -39 33q-16 18 -23.5 26.5t-17.5 12.5q-29 8 -33 62q-8 27 -11 63.5t-3 83.5z" />
<glyph unicode="&#xff;" horiz-adv-x="1001" d="M-193 -598q0 25 29 43q25 -23 41.5 -35t31.5 -20t32.5 -10.5t40.5 -2.5q117 0 228.5 69t210.5 195t181 305t139 400q-27 -41 -65.5 -100.5t-85.5 -117.5t-97.5 -105.5t-97.5 -63.5q-33 2 -68.5 13.5t-67.5 32t-56.5 49t-32.5 65.5q0 59 4 95t14 79q18 78 54.5 176 t84.5 193.5t106.5 178.5t121.5 130q16 0 41 -3t51.5 -11.5t51 -19.5t42.5 -30q-23 -20 -98.5 -137t-167.5 -336q-10 -23 -24.5 -65.5t-27.5 -90t-23.5 -92.5t-10.5 -71q0 -16 5 -24.5t9 -12.5q37 6 98.5 60.5t139.5 168.5q49 74 90 146.5t81 146.5t83 151.5t92 159.5 q27 0 57.5 -6t59.5 -15t50.5 -20.5t31.5 -23.5q-63 -135 -118.5 -264.5t-98.5 -264.5q-47 -150 -94.5 -272.5t-100.5 -226t-114.5 -190.5t-135.5 -165q-94 -98 -194.5 -150t-200.5 -52q-51 0 -101.5 11t-94.5 30.5t-77.5 45t-48.5 54.5zM729 1251q0 31 4 65t16.5 61.5t36 47 t62.5 21.5q27 -4 73 -29.5t66 -60.5l-21 -33q-20 -33 -45.5 -73t-51 -75.5t-35.5 -44.5q-43 18 -69 51t-36 70zM997 1206q0 33 4.5 67t16.5 61.5t34.5 46t59.5 20.5q12 0 31.5 -8.5t40 -20.5t39 -28.5t30.5 -32.5q0 -2 -19.5 -35t-46 -72t-53 -73.5t-38.5 -40.5 q-41 16 -65 48.5t-34 67.5z" />
<glyph unicode="&#x152;" horiz-adv-x="2002" d="M276 301q0 125 28 264.5t78 274.5t119.5 257t152.5 215t178.5 148.5t195.5 55.5q33 0 61.5 -5.5t61.5 -19.5q68 -29 133 -78q4 16 8 32.5t8 29.5q41 -6 79 -8.5t100 -2.5q129 0 241.5 7.5t203.5 15.5t156.5 15t100.5 7q47 0 84 -54t55 -155q-63 6 -103 8.5t-71 2.5 q-117 0 -213 -11.5t-184 -25.5q-12 -18 -26.5 -46t-37 -76t-55.5 -121t-82 -181q70 10 132.5 16t105.5 6q68 0 105.5 -36.5t37.5 -102.5q0 -16 -3 -33.5t-7 -29.5q-27 4 -59.5 7t-77.5 3q-82 0 -165 -13.5t-161 -23.5q-47 -111 -86 -212t-67.5 -186t-44 -146.5t-17.5 -92.5 q166 35 335 59.5t355 36.5q23 -35 38.5 -75.5t15.5 -87.5v-26.5t-5 -29.5q-57 2 -120.5 3t-165.5 1q-68 0 -128.5 -3t-122 -9t-130 -16.5t-154.5 -24.5q-66 27 -129 105q-92 -53 -185 -82t-181 -29q-188 0 -288 120t-100 353zM522 248q0 -160 53.5 -238t155.5 -78 q55 0 119.5 25t130.5 66q35 76 96.5 224t153.5 390q-109 23 -141 106q12 12 68 28.5t136 33.5q29 76 49.5 133t37 107.5t28.5 97.5t25 100q-90 10 -127 72q-14 0 -26.5 1t-23.5 1q-92 0 -183 -45t-173 -123t-151.5 -182.5t-119.5 -223t-79 -245.5t-29 -250z" />
<glyph unicode="&#x153;" horiz-adv-x="1484" d="M184 260q0 82 24.5 170t70 171t106.5 156.5t133 127.5q113 84 211 84q66 -35 129 -146q10 0 18.5 1t18.5 1q90 0 104 -133q94 117 209 190.5t226 73.5q57 0 98 -23t98 -89q-6 -119 -46 -211t-114.5 -164t-188.5 -126t-267 -95q-4 -18 -6 -39t-2 -43q0 -43 15 -83t62 -60 q106 27 216 82t182 118q20 -20 30 -39q-104 -111 -222 -181.5t-216 -80.5q-98 23 -166.5 82t-91.5 139q-74 -80 -169 -135t-206 -80q-117 12 -186.5 102.5t-69.5 229.5zM379 158q0 -49 16.5 -94.5t36.5 -51.5q92 20 169 76.5t133.5 140.5t88 190.5t31.5 227.5q0 53 -6 84 t-21 53q-90 -27 -160.5 -86t-121.5 -125q-35 -47 -65.5 -102t-53.5 -111.5t-35 -108.5t-12 -93zM1038 326q86 31 161 79t133.5 106t97.5 123.5t49 135.5q-55 -2 -119 -37t-124 -95t-112.5 -140t-85.5 -172z" />
<glyph unicode="&#x178;" horiz-adv-x="1255" d="M428 1456q20 8 62 16.5t92.5 16.5t102.5 13t93 7q0 -51 9.5 -124.5t24.5 -157.5t35.5 -170t41 -158t40.5 -124t34 -68q154 168 275.5 356t225.5 424q53 -6 102.5 -28.5t78.5 -51.5q-113 -135 -204 -245.5t-167 -208t-140.5 -186.5t-125.5 -179q-31 -104 -57.5 -211 t-47 -204t-32 -180t-11.5 -143q-23 0 -72 9.5t-100 22t-93 24.5t-50 20q33 55 64.5 136t62 170.5t59.5 180.5t53 169q-51 160 -99 300t-93 253.5t-86 195.5t-78 125zM1001 1614q0 31 4.5 64.5t16.5 61t35.5 47t62.5 21.5q27 -4 73 -29.5t67 -60.5l-18 -22 q-17 -23 -40.5 -49.5t-45 -51t-30.5 -30.5q-51 10 -83 20.5t-42 28.5zM1270 1614q0 33 4 66.5t16.5 61t35 46t58.5 20.5q12 0 32 -8t40.5 -20.5t38.5 -28.5t31 -33q0 -2 -17.5 -24.5t-40 -50t-45 -52t-34.5 -28.5q-47 6 -77 20.5t-42 30.5z" />
<glyph unicode="&#x2c6;" horiz-adv-x="657" d="M41 1192q84 29 155.5 80t137.5 129l-6 33q41 29 125 28h36t21 -2q6 -92 15.5 -160.5t21.5 -117.5t29.5 -82t39.5 -58q-4 -2 -18 -2q-53 0 -111.5 60.5t-101.5 152.5q-57 -51 -120.5 -82.5t-112.5 -31.5q-61 0 -111 53z" />
<glyph unicode="&#x2dc;" horiz-adv-x="755" d="M74 1278q96 -33 188 -33q78 0 162 23.5t188 72.5q12 -14 23.5 -36.5t21 -48t15.5 -52t10 -47.5q-92 -33 -170 -47t-145 -14q-127 0 -203 55t-90 127z" />
<glyph unicode="&#x2000;" horiz-adv-x="904" />
<glyph unicode="&#x2001;" horiz-adv-x="1808" />
<glyph unicode="&#x2002;" horiz-adv-x="904" />
<glyph unicode="&#x2003;" horiz-adv-x="1808" />
<glyph unicode="&#x2004;" horiz-adv-x="602" />
<glyph unicode="&#x2005;" horiz-adv-x="452" />
<glyph unicode="&#x2006;" horiz-adv-x="301" />
<glyph unicode="&#x2007;" horiz-adv-x="301" />
<glyph unicode="&#x2008;" horiz-adv-x="226" />
<glyph unicode="&#x2009;" horiz-adv-x="361" />
<glyph unicode="&#x200a;" horiz-adv-x="100" />
<glyph unicode="&#x2010;" horiz-adv-x="1077" d="M279 516q0 10 4 30.5t8 31.5q35 -6 65.5 -7.5t79.5 -1.5q104 0 195.5 6.5t165 14.5t127 14t82.5 6q39 0 68.5 -47t43.5 -135q-51 6 -84 8t-57 2q-88 0 -164 -9t-143.5 -19.5t-129 -19.5t-122.5 -9q-63 0 -101 36t-38 99z" />
<glyph unicode="&#x2011;" horiz-adv-x="1077" d="M279 516q0 10 4 30.5t8 31.5q35 -6 65.5 -7.5t79.5 -1.5q104 0 195.5 6.5t165 14.5t127 14t82.5 6q39 0 68.5 -47t43.5 -135q-51 6 -84 8t-57 2q-88 0 -164 -9t-143.5 -19.5t-129 -19.5t-122.5 -9q-63 0 -101 36t-38 99z" />
<glyph unicode="&#x2012;" horiz-adv-x="1077" d="M279 516q0 10 4 30.5t8 31.5q35 -6 65.5 -7.5t79.5 -1.5q104 0 195.5 6.5t165 14.5t127 14t82.5 6q39 0 68.5 -47t43.5 -135q-51 6 -84 8t-57 2q-88 0 -164 -9t-143.5 -19.5t-129 -19.5t-122.5 -9q-63 0 -101 36t-38 99z" />
<glyph unicode="&#x2013;" horiz-adv-x="1210" d="M276 516q0 10 5.5 31.5t9.5 32.5q39 -6 74.5 -8.5t93.5 -2.5q121 0 227.5 6.5t192.5 14.5t147 14t94 6q45 0 80 -47t51 -135q-59 6 -97 8t-67 2q-102 0 -190 -9t-166 -19.5t-149.5 -19.5t-143.5 -9q-74 0 -118 36t-44 99z" />
<glyph unicode="&#x2014;" horiz-adv-x="1277" d="M279 516q0 10 5 31.5t9 32.5q43 -6 82 -8.5t98 -2.5q129 0 242.5 6.5t206 14.5t158 14t100.5 6q47 0 85 -47t54 -135q-63 6 -103 8t-71 2q-111 0 -204 -9t-176 -19.5t-160.5 -19.5t-153.5 -9q-78 0 -125 36t-47 99z" />
<glyph unicode="&#x2018;" horiz-adv-x="464" d="M465 1223q78 342 342 481q12 -10 22.5 -33.5t10.5 -44.5q-51 -86 -74 -173t-23 -196q0 -82 13 -180q-53 2 -102.5 16.5t-89.5 34t-66.5 45t-32.5 50.5z" />
<glyph unicode="&#x2019;" horiz-adv-x="399" d="M459 1155q51 86 73.5 173t22.5 196q0 82 -12 180q51 -4 101 -17.5t90 -33t66.5 -45t33.5 -49.5q-78 -343 -342 -482q-12 10 -22.5 34t-10.5 44z" />
<glyph unicode="&#x201a;" horiz-adv-x="491" d="M2 -268q102 88 146.5 168t44.5 174q0 61 -5.5 105t-19.5 102q51 -4 101 -17.5t90 -33t67 -45t33 -50.5q-96 -340 -424 -481q-12 10 -22.5 33.5t-10.5 44.5z" />
<glyph unicode="&#x201c;" horiz-adv-x="866" d="M459 1225q96 340 424 481q12 -10 22 -33.5t10 -44.5q-102 -88 -146 -168t-44 -174q0 -61 5 -105t20 -102q-53 2 -102.5 16.5t-89.5 34t-66.5 45t-32.5 50.5zM868 1225q96 340 424 481q12 -10 22.5 -33.5t10.5 -44.5q-102 -88 -146 -168t-44 -174q0 -61 5 -105t19 -102 q-53 2 -102 16.5t-89 34t-67 45t-33 50.5z" />
<glyph unicode="&#x201d;" horiz-adv-x="843" d="M432 1157q102 88 146.5 168t44.5 174q0 61 -5.5 105.5t-19.5 101.5q51 -4 101.5 -17.5t90 -33t66.5 -45t33 -49.5q-96 -341 -424 -482q-12 10 -22.5 34t-10.5 44zM842 1157q102 88 146 168t44 174q0 61 -5 105.5t-19 101.5q51 -4 101 -17.5t90 -33t66.5 -45t32.5 -49.5 q-96 -341 -424 -482q-12 10 -22 34t-10 44z" />
<glyph unicode="&#x201e;" horiz-adv-x="901" d="M2 -268q102 88 146.5 168t44.5 174q0 61 -5.5 105t-19.5 102q51 -4 101 -17.5t90 -33t67 -45t33 -50.5q-96 -340 -424 -481q-12 10 -22.5 33.5t-10.5 44.5zM412 -268q102 88 146 168t44 174q0 61 -5 105t-19 102q51 -4 101 -17.5t90 -33t66.5 -45t32.5 -50.5 q-96 -340 -424 -481q-12 10 -22 33.5t-10 44.5z" />
<glyph unicode="&#x2022;" horiz-adv-x="692" d="M383 559q0 27 8 70t19.5 87t21.5 83t17 59q27 0 68.5 -14.5t85.5 -37t83 -52t59 -62.5q-18 -45 -50.5 -85t-67.5 -70.5t-67 -48t-52 -17.5q-18 2 -37.5 10t-38 20.5t-32 27t-17.5 30.5z" />
<glyph unicode="&#x2026;" horiz-adv-x="1443" d="M141 2q0 25 7.5 63.5t17.5 78.5t20.5 76t14.5 54q25 0 62.5 -12t77.5 -33.5t76 -49t54 -56.5q-18 -41 -47 -78t-60.5 -64.5t-60.5 -43t-47 -15.5q-33 4 -68.5 27.5t-46.5 52.5zM616 2q0 25 7.5 63.5t17.5 78.5t20.5 76t14.5 54q25 0 62.5 -12t77.5 -33.5t76 -49t54 -56.5 q-18 -41 -47 -78t-60.5 -64.5t-60.5 -43t-47 -15.5q-33 4 -68.5 27.5t-46.5 52.5zM1092 2q0 25 7 63.5t17 78.5t20.5 76t14.5 54q25 0 62.5 -12t77.5 -33.5t76 -49t54 -56.5q-18 -41 -46.5 -78t-60.5 -64.5t-61 -43t-47 -15.5q-33 4 -68.5 27.5t-45.5 52.5z" />
<glyph unicode="&#x202f;" horiz-adv-x="361" />
<glyph unicode="&#x2039;" horiz-adv-x="1155" d="M236 569q20 23 61 40.5t91 31.5t105.5 26.5t104.5 26.5q76 20 138.5 45t127 57.5t137 74.5t166.5 102q29 -12 56.5 -37t50 -52.5t36 -56t13.5 -49.5q0 -37 -20.5 -69.5t-42.5 -59.5q-14 27 -46 27q-23 0 -52 -6t-50 -11q-66 -16 -158 -44.5t-187 -60.5t-179 -61.5 t-135 -43.5q8 -16 21 -31t34.5 -31t56.5 -36.5t88 -49.5q23 -12 59 -27.5t75.5 -31t79.5 -28.5t71 -24q12 -4 40 -11t38 -11q-2 -18 -19.5 -37t-33.5 -25q-147 33 -272.5 72t-248.5 111q-47 29 -87 62.5t-74 86.5q-16 25 -29.5 58.5t-15.5 72.5z" />
<glyph unicode="&#x203a;" horiz-adv-x="1153" d="M199 193q0 47 47 83.5t123 61.5q63 20 155 51t187.5 60.5t180.5 56t136 43.5q-10 16 -22.5 30.5t-34 31t-56 37t-88.5 48.5q-49 27 -109.5 50.5t-124 42t-128 29.5t-123.5 11q2 18 19.5 39t33.5 27q92 0 176 -15.5t163 -42t154 -59.5t150 -69q33 -18 68 -46t65.5 -63 t51 -78t22.5 -94q-20 -23 -61 -40t-91.5 -31.5t-105.5 -27t-104 -26.5q-76 -23 -138.5 -46.5t-127 -56t-137 -75.5t-167.5 -100q-59 47 -86.5 89t-27.5 79z" />
<glyph unicode="&#x205f;" horiz-adv-x="452" />
<glyph unicode="&#x20ac;" horiz-adv-x="1488" d="M260 504q0 33 8 59q35 -4 66 -8t80 -4h98q4 43 13.5 84t19.5 82h-51q-72 0 -104 33.5t-32 87.5q0 33 9 59q35 -4 65.5 -8t79.5 -4h92q57 135 144.5 249.5t193 198.5t226 131t247.5 47q141 0 220 -59t79 -166q0 -41 -11 -84t-32.5 -85t-50.5 -81t-64 -67q-53 8 -92 48 t-49 93q72 59 114 123.5t42 118.5q0 90 -113 90q-47 0 -97 -19.5t-101.5 -54.5t-99.5 -84t-89 -108q-90 -129 -153 -267q57 6 99 11.5t64 5.5q39 0 69 -37t44 -123q-51 6 -84 8t-57 2q-53 0 -101.5 -4t-93.5 -8q-16 -47 -27.5 -95t-21.5 -96q59 10 104 14.5t70 4.5 q39 0 68.5 -37t44.5 -123q-51 6 -84 8t-58 2q-45 0 -86 -3t-80 -7q-2 -23 -2 -47.5v-46.5q0 -152 47.5 -244t124.5 -108q88 20 223.5 112t295.5 240q20 -20 24 -43q-59 -78 -122.5 -149.5t-126 -131t-123 -104.5t-111.5 -70q-252 4 -382 142.5t-134 406.5q-55 -6 -107 -6 q-72 0 -103.5 34t-31.5 87z" />
<glyph unicode="&#x2122;" horiz-adv-x="1206" d="M563 1389q0 2 12 36q14 -6 33 -9t37 -3q31 0 68 2t72.5 5t63.5 6.5t38 3.5q29 0 44 -23t21 -57q-31 4 -48 4h-27h-33t-33 -2q-29 -53 -51.5 -115.5t-40 -123t-28.5 -113t-15 -85.5q-68 8 -98 62q12 39 43.5 119t78.5 239q-18 -2 -36.5 -2h-32.5q-33 0 -50.5 16.5 t-17.5 39.5zM829 969q0 12 15.5 48t39 83t55.5 99t63.5 99.5t61.5 82t52 49.5q10 0 27.5 -6.5t34 -14.5t30 -16.5t15.5 -12.5q-12 -25 -32 -81t-32 -121q45 86 96.5 156.5t85.5 95.5q10 0 29 -6.5t36 -14.5t30.5 -16.5t15.5 -12.5q-25 -43 -40 -105.5t-23.5 -127 t-11.5 -124.5t-3 -99q-25 0 -61.5 9t-46.5 23q0 78 16 171.5t55 218.5q-25 -27 -55.5 -79.5t-59 -112.5t-50 -122.5t-27.5 -107.5q-35 0 -68 9t-41 25q2 84 31 183.5t49 199.5q-23 -33 -56.5 -86t-64 -114.5t-54 -120.5t-28.5 -105q-47 14 -65.5 25.5t-18.5 28.5z" />
<glyph unicode="&#x25fc;" horiz-adv-x="972" d="M0 0v973h973v-973h-973z" />
</font>
</defs>
</svg>
